  0
SECTION
  2
HEADER
  9
$ACADVER
  1
AC1015
  9
$ACADMAINTVER
 70
    20
  9
$DWGCODEPAGE
  3
ANSI_936
  9
$INSBASE
 10
0.0
 20
0.0
 30
0.0
  9
$EXTMIN
 10
93.93407570893065
 20
48.73479225624635
 30
0.0
  9
$EXTMAX
 10
233.9179336986944
 20
357.5782174770365
 30
0.0
  9
$LIMMIN
 10
0.0
 20
0.0
  9
$LIMMAX
 10
420.0
 20
297.0
  9
$ORTHOMODE
 70
     1
  9
$REGENMODE
 70
     1
  9
$FILLMODE
 70
     1
  9
$QTEXTMODE
 70
     0
  9
$MIRRTEXT
 70
     0
  9
$LTSCALE
 40
1.0
  9
$ATTMODE
 70
     1
  9
$TEXTSIZE
 40
2.5
  9
$TRACEWID
 40
1.0
  9
$TEXTSTYLE
  7
Standard
  9
$CLAYER
  8
标注
  9
$CELTYPE
  6
ByLayer
  9
$CECOLOR
 62
   256
  9
$CELTSCALE
 40
1.0
  9
$DISPSILH
 70
     0
  9
$DIMSCALE
 40
1.0
  9
$DIMASZ
 40
0.65
  9
$DIMEXO
 40
0.88
  9
$DIMDLI
 40
0.015
  9
$DIMRND
 40
0.0
  9
$DIMDLE
 40
0.0
  9
$DIMEXE
 40
0.32
  9
$DIMTP
 40
0.0
  9
$DIMTM
 40
0.0
  9
$DIMTXT
 40
0.65
  9
$DIMCEN
 40
0.09
  9
$DIMTSZ
 40
0.0
  9
$DIMTOL
 70
     0
  9
$DIMLIM
 70
     0
  9
$DIMTIH
 70
     0
  9
$DIMTOH
 70
     0
  9
$DIMSE1
 70
     0
  9
$DIMSE2
 70
     0
  9
$DIMTAD
 70
     0
  9
$DIMZIN
 70
     8
  9
$DIMBLK
  1

  9
$DIMASO
 70
     1
  9
$DIMSHO
 70
     1
  9
$DIMPOST
  1
"
  9
$DIMAPOST
  1
"
  9
$DIMALT
 70
     0
  9
$DIMALTD
 70
     1
  9
$DIMALTF
 40
0.03937
  9
$DIMLFAC
 40
1.0
  9
$DIMTOFL
 70
     1
  9
$DIMTVP
 40
0.0
  9
$DIMTIX
 70
     0
  9
$DIMSOXD
 70
     0
  9
$DIMSAH
 70
     0
  9
$DIMBLK1
  1

  9
$DIMBLK2
  1

  9
$DIMSTYLE
  2
副本Standard
  9
$DIMCLRD
 70
   256
  9
$DIMCLRE
 70
   256
  9
$DIMCLRT
 70
   256
  9
$DIMTFAC
 40
1.0
  9
$DIMGAP
 40
0.2
  9
$DIMJUST
 70
     0
  9
$DIMSD1
 70
     0
  9
$DIMSD2
 70
     0
  9
$DIMTOLJ
 70
     1
  9
$DIMTZIN
 70
     0
  9
$DIMALTZ
 70
     0
  9
$DIMALTTZ
 70
     0
  9
$DIMUPT
 70
     0
  9
$DIMDEC
 70
     3
  9
$DIMTDEC
 70
     3
  9
$DIMALTU
 70
     2
  9
$DIMALTTD
 70
     1
  9
$DIMTXSTY
  7
Standard
  9
$DIMAUNIT
 70
     0
  9
$DIMADEC
 70
     1
  9
$DIMALTRND
 40
0.0
  9
$DIMAZIN
 70
     2
  9
$DIMDSEP
 70
    44
  9
$DIMATFIT
 70
     3
  9
$DIMFRAC
 70
     2
  9
$DIMLDRBLK
  1

  9
$DIMLUNIT
 70
     5
  9
$DIMLWD
 70
    -2
  9
$DIMLWE
 70
    -2
  9
$DIMTMOVE
 70
     0
  9
$LUNITS
 70
     2
  9
$LUPREC
 70
     4
  9
$SKETCHINC
 40
1.0
  9
$FILLETRAD
 40
0.8
  9
$AUNITS
 70
     0
  9
$AUPREC
 70
     0
  9
$MENU
  1
.
  9
$ELEVATION
 40
0.0
  9
$PELEVATION
 40
0.0
  9
$THICKNESS
 40
0.0
  9
$LIMCHECK
 70
     0
  9
$CHAMFERA
 40
0.0
  9
$CHAMFERB
 40
0.0
  9
$CHAMFERC
 40
0.0
  9
$CHAMFERD
 40
0.0
  9
$SKPOLY
 70
     0
  9
$TDCREATE
 40
2455855.628782743
  9
$TDUCREATE
 40
2455855.295449410
  9
$TDUPDATE
 40
2458650.396471528
  9
$TDUUPDATE
 40
2458650.063138195
  9
$TDINDWG
 40
0.0390894560
  9
$TDUSRTIMER
 40
0.0390892824
  9
$USRTIMER
 70
     1
  9
$ANGBASE
 50
0.0
  9
$ANGDIR
 70
     0
  9
$PDMODE
 70
     0
  9
$PDSIZE
 40
0.0
  9
$PLINEWID
 40
0.0
  9
$SPLFRAME
 70
     0
  9
$SPLINETYPE
 70
     6
  9
$SPLINESEGS
 70
     8
  9
$HANDSEED
  5
C52
  9
$SURFTAB1
 70
     6
  9
$SURFTAB2
 70
     6
  9
$SURFTYPE
 70
     6
  9
$SURFU
 70
     6
  9
$SURFV
 70
     6
  9
$UCSBASE
  2

  9
$UCSNAME
  2

  9
$UCSORG
 10
0.0
 20
0.0
 30
0.0
  9
$UCSXDIR
 10
1.0
 20
0.0
 30
0.0
  9
$UCSYDIR
 10
0.0
 20
1.0
 30
0.0
  9
$UCSORTHOREF
  2

  9
$UCSORTHOVIEW
 70
     0
  9
$UCSORGTOP
 10
0.0
 20
0.0
 30
0.0
  9
$UCSORGBOTTOM
 10
0.0
 20
0.0
 30
0.0
  9
$UCSORGLEFT
 10
0.0
 20
0.0
 30
0.0
  9
$UCSORGRIGHT
 10
0.0
 20
0.0
 30
0.0
  9
$UCSORGFRONT
 10
0.0
 20
0.0
 30
0.0
  9
$UCSORGBACK
 10
0.0
 20
0.0
 30
0.0
  9
$PUCSBASE
  2

  9
$PUCSNAME
  2

  9
$PUCSORG
 10
0.0
 20
0.0
 30
0.0
  9
$PUCSXDIR
 10
1.0
 20
0.0
 30
0.0
  9
$PUCSYDIR
 10
0.0
 20
1.0
 30
0.0
  9
$PUCSORTHOREF
  2

  9
$PUCSORTHOVIEW
 70
     0
  9
$PUCSORGTOP
 10
0.0
 20
0.0
 30
0.0
  9
$PUCSORGBOTTOM
 10
0.0
 20
0.0
 30
0.0
  9
$PUCSORGLEFT
 10
0.0
 20
0.0
 30
0.0
  9
$PUCSORGRIGHT
 10
0.0
 20
0.0
 30
0.0
  9
$PUCSORGFRONT
 10
0.0
 20
0.0
 30
0.0
  9
$PUCSORGBACK
 10
0.0
 20
0.0
 30
0.0
  9
$USERI1
 70
     0
  9
$USERI2
 70
     0
  9
$USERI3
 70
     0
  9
$USERI4
 70
     0
  9
$USERI5
 70
     0
  9
$USERR1
 40
0.0
  9
$USERR2
 40
0.0
  9
$USERR3
 40
0.0
  9
$USERR4
 40
0.0
  9
$USERR5
 40
2.5
  9
$WORLDVIEW
 70
     1
  9
$SHADEDGE
 70
     3
  9
$SHADEDIF
 70
    70
  9
$TILEMODE
 70
     1
  9
$MAXACTVP
 70
    64
  9
$PINSBASE
 10
0.0
 20
0.0
 30
0.0
  9
$PLIMCHECK
 70
     0
  9
$PEXTMIN
 10
1.000000000000000E+20
 20
1.000000000000000E+20
 30
1.000000000000000E+20
  9
$PEXTMAX
 10
-1.000000000000000E+20
 20
-1.000000000000000E+20
 30
-1.000000000000000E+20
  9
$PLIMMIN
 10
0.0
 20
0.0
  9
$PLIMMAX
 10
420.0
 20
297.0
  9
$UNITMODE
 70
     0
  9
$VISRETAIN
 70
     1
  9
$PLINEGEN
 70
     0
  9
$PSLTSCALE
 70
     1
  9
$TREEDEPTH
 70
  3020
  9
$CMLSTYLE
  2
Standard
  9
$CMLJUST
 70
     0
  9
$CMLSCALE
 40
20.0
  9
$PROXYGRAPHICS
 70
     1
  9
$MEASUREMENT
 70
     1
  9
$CELWEIGHT
370
    -1
  9
$ENDCAPS
280
     0
  9
$JOINSTYLE
280
     0
  9
$LWDISPLAY
290
     0
  9
$INSUNITS
 70
     4
  9
$HYPERLINKBASE
  1

  9
$STYLESHEET
  1

  9
$XEDIT
290
     1
  9
$CEPSNTYPE
380
     0
  9
$PSTYLEMODE
290
     1
  9
$FINGERPRINTGUID
  2
{B48F46D2-D0EA-4C00-A4A8-23CB7417C210}
  9
$VERSIONGUID
  2
{A0036678-D173-4794-BCF8-357C40F3B3EB}
  9
$EXTNAMES
290
     1
  9
$PSVPSCALE
 40
0.0
  9
$OLESTARTUP
290
     0
  0
ENDSEC
  0
SECTION
  2
CLASSES
  0
CLASS
  1
ACDBDICTIONARYWDFLT
  2
AcDbDictionaryWithDefault
  3
ObjectDBX Classes
 90
        0
280
     0
281
     0
  0
CLASS
  1
DIMASSOC
  2
AcDbDimAssoc
  3
"AcDbDimAssoc|Product Desc:     AcDim ARX App For Dimension|Company:          Autodesk, Inc.|WEB Address:      www.autodesk.com"
 90
        0
280
     0
281
     0
  0
CLASS
  1
SORTENTSTABLE
  2
AcDbSortentsTable
  3
ObjectDBX Classes
 90
        0
280
     0
281
     0
  0
CLASS
  1
MATERIAL
  2
AcDbMaterial
  3
ObjectDBX Classes
 90
     1153
280
     0
281
     0
  0
CLASS
  1
VISUALSTYLE
  2
AcDbVisualStyle
  3
ObjectDBX Classes
 90
     4095
280
     0
281
     0
  0
CLASS
  1
TABLESTYLE
  2
AcDbTableStyle
  3
ObjectDBX Classes
 90
     4095
280
     0
281
     0
  0
CLASS
  1
SCALE
  2
AcDbScale
  3
ObjectDBX Classes
 90
     1153
280
     0
281
     0
  0
CLASS
  1
MLEADERSTYLE
  2
AcDbMLeaderStyle
  3
ACDB_MLEADERSTYLE_CLASS
 90
     4095
280
     0
281
     0
  0
CLASS
  1
VLO-VL
  2
vlo_VL
  3
VL|AutoLISP based application
 90
      129
280
     0
281
     0
  0
CLASS
  1
DICTIONARYVAR
  2
AcDbDictionaryVar
  3
ObjectDBX Classes
 90
        0
280
     0
281
     0
  0
CLASS
  1
CELLSTYLEMAP
  2
AcDbCellStyleMap
  3
ObjectDBX Classes
 90
     1152
280
     0
281
     0
  0
CLASS
  1
ACDBPLACEHOLDER
  2
AcDbPlaceHolder
  3
ObjectDBX Classes
 90
        0
280
     0
281
     0
  0
CLASS
  1
LAYOUT
  2
AcDbLayout
  3
ObjectDBX Classes
 90
        0
280
     0
281
     0
  0
ENDSEC
  0
SECTION
  2
TABLES
  0
TABLE
  2
VPORT
  5
8
330
0
100
AcDbSymbolTable
 70
     1
  0
VPORT
  5
BC6
330
8
100
AcDbSymbolTableRecord
100
AcDbViewportTableRecord
  2
*Active
 70
     0
 10
0.0
 20
0.0
 11
1.0
 21
1.0
 12
168.8631832452236
 22
188.3833496831082
 13
0.0
 23
0.0
 14
10.0
 24
10.0
 15
10.0
 25
10.0
 16
0.0
 26
0.0
 36
1.0
 17
0.0
 27
0.0
 37
0.0
 40
215.9049355440552
 41
1.622972972972972
 42
50.0
 43
0.0
 44
0.0
 50
0.0
 51
0.0
 71
     0
 72
  1000
 73
     1
 74
     3
 75
     0
 76
     0
 77
     0
 78
     0
281
     0
 65
     1
110
0.0
120
0.0
130
0.0
111
1.0
121
0.0
131
0.0
112
0.0
122
1.0
132
0.0
 79
     0
146
0.0
  0
ENDTAB
  0
TABLE
  2
LTYPE
  5
5
330
0
100
AcDbSymbolTable
 70
     3
  0
LTYPE
  5
14
330
5
100
AcDbSymbolTableRecord
100
AcDbLinetypeTableRecord
  2
ByBlock
 70
     0
  3

 72
    65
 73
     0
 40
0.0
  0
LTYPE
  5
15
330
5
100
AcDbSymbolTableRecord
100
AcDbLinetypeTableRecord
  2
ByLayer
 70
     0
  3

 72
    65
 73
     0
 40
0.0
  0
LTYPE
  5
16
330
5
100
AcDbSymbolTableRecord
100
AcDbLinetypeTableRecord
  2
Continuous
 70
     0
  3
Solid line
 72
    65
 73
     0
 40
0.0
  0
LTYPE
  5
ED
330
5
100
AcDbSymbolTableRecord
100
AcDbLinetypeTableRecord
  2
CENTER2
 70
     0
  3
Center (.5x) ___ _ ___ _ ___ _ ___ _ ___ _ ___
 72
    65
 73
     4
 40
28.575
 49
19.05
 74
     0
 49
-3.174999999999998
 74
     0
 49
3.174999999999998
 74
     0
 49
-3.174999999999998
 74
     0
  0
LTYPE
  5
EE
330
5
100
AcDbSymbolTableRecord
100
AcDbLinetypeTableRecord
  2
HIDDEN2
 70
     0
  3
Hidden (.5x) _ _ _ _ _ _ _ _ _ _ _ _ _ _ _ _ _
 72
    65
 73
     2
 40
4.762499999999998
 49
3.174999999999998
 74
     0
 49
-1.587499999999999
 74
     0
  0
ENDTAB
  0
TABLE
  2
LAYER
  5
2
102
{ACAD_XDICTIONARY
360
F7
102
}
330
0
100
AcDbSymbolTable
 70
     6
  0
LAYER
  5
10
102
{ACAD_XDICTIONARY
360
C32
102
}
330
2
100
AcDbSymbolTableRecord
100
AcDbLayerTableRecord
  2
0
 70
     0
 62
     7
  6
Continuous
370
    -3
390
F
  0
LAYER
  5
EF
102
{ACAD_XDICTIONARY
360
C34
102
}
330
2
100
AcDbSymbolTableRecord
100
AcDbLayerTableRecord
  2
中心线
 70
     0
 62
     1
  6
CENTER2
370
    -3
390
F
  0
LAYER
  5
F0
102
{ACAD_XDICTIONARY
360
C36
102
}
330
2
100
AcDbSymbolTableRecord
100
AcDbLayerTableRecord
  2
虚线
 70
     0
 62
     4
  6
HIDDEN2
370
    -3
390
F
  0
LAYER
  5
F1
330
2
100
AcDbSymbolTableRecord
100
AcDbLayerTableRecord
  2
Defpoints
 70
     0
 62
     7
  6
Continuous
290
     0
370
    -3
390
F
  0
LAYER
  5
F2
102
{ACAD_XDICTIONARY
360
C38
102
}
330
2
100
AcDbSymbolTableRecord
100
AcDbLayerTableRecord
  2
标注
 70
     0
 62
    80
  6
Continuous
370
     5
390
F
1001
AcAecLayerStandard
1000

1000

  0
LAYER
  5
F3
102
{ACAD_XDICTIONARY
360
C3A
102
}
330
2
100
AcDbSymbolTableRecord
100
AcDbLayerTableRecord
  2
截面层
 70
     0
 62
     6
  6
Continuous
370
    50
390
F
  0
ENDTAB
  0
TABLE
  2
STYLE
  5
3
330
0
100
AcDbSymbolTable
 70
     1
  0
STYLE
  5
11
330
3
100
AcDbSymbolTableRecord
100
AcDbTextStyleTableRecord
  2
Standard
 70
     0
 40
0.0
 41
1.0
 50
0.0
 71
     0
 42
2.5
  3
txt
  4

  0
ENDTAB
  0
TABLE
  2
VIEW
  5
6
330
0
100
AcDbSymbolTable
 70
     0
  0
ENDTAB
  0
TABLE
  2
UCS
  5
7
330
0
100
AcDbSymbolTable
 70
     0
  0
ENDTAB
  0
TABLE
  2
APPID
  5
9
330
0
100
AcDbSymbolTable
 70
     8
  0
APPID
  5
12
330
9
100
AcDbSymbolTableRecord
100
AcDbRegAppTableRecord
  2
ACAD
 70
     0
  0
APPID
  5
F6
330
9
100
AcDbSymbolTableRecord
100
AcDbRegAppTableRecord
  2
AcAecLayerStandard
 70
     0
  0
APPID
  5
453
330
9
100
AcDbSymbolTableRecord
100
AcDbRegAppTableRecord
  2
ACAD_DSTYLE_DIMEXT_LENGTH
 70
     0
  0
APPID
  5
454
330
9
100
AcDbSymbolTableRecord
100
AcDbRegAppTableRecord
  2
ACAD_DSTYLE_DIMEXT_ENABLED
 70
     0
  0
APPID
  5
455
330
9
100
AcDbSymbolTableRecord
100
AcDbRegAppTableRecord
  2
ACAD_DSTYLE_DIMJOGGED_JOGANGLE_SYMBOL
 70
     0
  0
APPID
  5
456
330
9
100
AcDbSymbolTableRecord
100
AcDbRegAppTableRecord
  2
ACAD_DSTYLE_DIMARC_LENGTH_SYMBOL
 70
     0
  0
APPID
  5
C18
330
9
100
AcDbSymbolTableRecord
100
AcDbRegAppTableRecord
  2
ACAD_MLEADERVER
 70
     0
  0
APPID
  5
C28
330
9
100
AcDbSymbolTableRecord
100
AcDbRegAppTableRecord
  2
ACAD_DSTYLE_DIMRADIAL_EXTENSION
 70
     0
  0
ENDTAB
  0
TABLE
  2
DIMSTYLE
  5
A
330
0
100
AcDbSymbolTable
 70
     3
100
AcDbDimStyleTable
 71
     2
340
F5
340
29
  0
DIMSTYLE
105
29
330
A
100
AcDbSymbolTableRecord
100
AcDbDimStyleTableRecord
  2
ISO-25
 70
     0
 41
2.5
 42
0.625
 43
3.75
 44
1.25
 73
     0
 74
     0
 77
     1
 78
     8
140
2.5
141
2.5
143
0.03937007874016
147
0.625
171
     3
172
     1
271
     2
272
     2
274
     3
283
     0
284
     8
340
11
  0
DIMSTYLE
105
F4
330
A
100
AcDbSymbolTableRecord
100
AcDbDimStyleTableRecord
  2
Standard
 70
     0
340
11
  0
DIMSTYLE
105
F5
102
{ACAD_REACTORS
330
97F
330
97C
330
979
330
976
330
973
330
A02
330
A2C
330
A29
330
A26
330
A23
330
A20
330
A1D
330
A1A
330
A17
102
}
330
A
100
AcDbSymbolTableRecord
100
AcDbDimStyleTableRecord
  2
副本Standard
 70
     0
  3
"
  4
"
 41
0.65
 42
0.88
 43
0.015
 44
0.32
 73
     0
 74
     0
 78
     8
 79
     2
140
0.65
143
0.03937
147
0.2
171
     1
172
     1
176
   256
177
   256
178
   256
179
     1
271
     3
272
     3
274
     1
276
     2
277
     5
278
    44
340
11
  0
ENDTAB
  0
TABLE
  2
BLOCK_RECORD
  5
1
330
0
100
AcDbSymbolTable
 70
    85
  0
BLOCK_RECORD
  5
21
330
1
100
AcDbSymbolTableRecord
100
AcDbBlockTableRecord
  2
*Model_Space
340
24
  0
BLOCK_RECORD
  5
1D
330
1
100
AcDbSymbolTableRecord
100
AcDbBlockTableRecord
  2
*Paper_Space
340
20
  0
BLOCK_RECORD
  5
25
330
1
100
AcDbSymbolTableRecord
100
AcDbBlockTableRecord
  2
*Paper_Space0
340
28
  0
BLOCK_RECORD
  5
2D
330
1
100
AcDbSymbolTableRecord
100
AcDbBlockTableRecord
  2
*D1
340
0
  0
BLOCK_RECORD
  5
3A
330
1
100
AcDbSymbolTableRecord
100
AcDbBlockTableRecord
  2
*D2
340
0
  0
BLOCK_RECORD
  5
47
330
1
100
AcDbSymbolTableRecord
100
AcDbBlockTableRecord
  2
*D3
340
0
  0
BLOCK_RECORD
  5
54
330
1
100
AcDbSymbolTableRecord
100
AcDbBlockTableRecord
  2
*D4
340
0
  0
BLOCK_RECORD
  5
61
330
1
100
AcDbSymbolTableRecord
100
AcDbBlockTableRecord
  2
*D5
340
0
  0
BLOCK_RECORD
  5
6E
330
1
100
AcDbSymbolTableRecord
100
AcDbBlockTableRecord
  2
*D6
340
0
  0
BLOCK_RECORD
  5
7B
330
1
100
AcDbSymbolTableRecord
100
AcDbBlockTableRecord
  2
*D7
340
0
  0
BLOCK_RECORD
  5
88
330
1
100
AcDbSymbolTableRecord
100
AcDbBlockTableRecord
  2
*D8
340
0
  0
BLOCK_RECORD
  5
95
330
1
100
AcDbSymbolTableRecord
100
AcDbBlockTableRecord
  2
*D9
340
0
  0
BLOCK_RECORD
  5
9D
330
1
100
AcDbSymbolTableRecord
100
AcDbBlockTableRecord
  2
*D10
340
0
  0
BLOCK_RECORD
  5
A5
330
1
100
AcDbSymbolTableRecord
100
AcDbBlockTableRecord
  2
*D11
340
0
  0
BLOCK_RECORD
  5
B3
330
1
100
AcDbSymbolTableRecord
100
AcDbBlockTableRecord
  2
*D12
340
0
  0
BLOCK_RECORD
  5
C1
330
1
100
AcDbSymbolTableRecord
100
AcDbBlockTableRecord
  2
*D13
340
0
  0
BLOCK_RECORD
  5
CF
330
1
100
AcDbSymbolTableRecord
100
AcDbBlockTableRecord
  2
*D14
340
0
  0
BLOCK_RECORD
  5
DD
330
1
100
AcDbSymbolTableRecord
100
AcDbBlockTableRecord
  2
*D15
340
0
  0
BLOCK_RECORD
  5
E5
330
1
100
AcDbSymbolTableRecord
100
AcDbBlockTableRecord
  2
*D16
340
0
  0
BLOCK_RECORD
  5
2DC
330
1
100
AcDbSymbolTableRecord
100
AcDbBlockTableRecord
  2
*D17
340
0
  0
BLOCK_RECORD
  5
2EA
330
1
100
AcDbSymbolTableRecord
100
AcDbBlockTableRecord
  2
*D18
340
0
  0
BLOCK_RECORD
  5
2F8
330
1
100
AcDbSymbolTableRecord
100
AcDbBlockTableRecord
  2
*D19
340
0
  0
BLOCK_RECORD
  5
305
330
1
100
AcDbSymbolTableRecord
100
AcDbBlockTableRecord
  2
*D20
340
0
  0
BLOCK_RECORD
  5
30D
330
1
100
AcDbSymbolTableRecord
100
AcDbBlockTableRecord
  2
*D21
340
0
  0
BLOCK_RECORD
  5
315
330
1
100
AcDbSymbolTableRecord
100
AcDbBlockTableRecord
  2
*D22
340
0
  0
BLOCK_RECORD
  5
32E
330
1
100
AcDbSymbolTableRecord
100
AcDbBlockTableRecord
  2
*D23
340
0
  0
BLOCK_RECORD
  5
347
330
1
100
AcDbSymbolTableRecord
100
AcDbBlockTableRecord
  2
*D24
340
0
  0
BLOCK_RECORD
  5
34F
330
1
100
AcDbSymbolTableRecord
100
AcDbBlockTableRecord
  2
*D25
340
0
  0
BLOCK_RECORD
  5
357
330
1
100
AcDbSymbolTableRecord
100
AcDbBlockTableRecord
  2
*D26
340
0
  0
BLOCK_RECORD
  5
364
330
1
100
AcDbSymbolTableRecord
100
AcDbBlockTableRecord
  2
*D27
340
0
  0
BLOCK_RECORD
  5
371
330
1
100
AcDbSymbolTableRecord
100
AcDbBlockTableRecord
  2
*D28
340
0
  0
BLOCK_RECORD
  5
37E
330
1
100
AcDbSymbolTableRecord
100
AcDbBlockTableRecord
  2
*D29
340
0
  0
BLOCK_RECORD
  5
38B
330
1
100
AcDbSymbolTableRecord
100
AcDbBlockTableRecord
  2
*D30
340
0
  0
BLOCK_RECORD
  5
3A2
330
1
100
AcDbSymbolTableRecord
100
AcDbBlockTableRecord
  2
*D31
340
0
  0
BLOCK_RECORD
  5
3AF
330
1
100
AcDbSymbolTableRecord
100
AcDbBlockTableRecord
  2
*D32
340
0
  0
BLOCK_RECORD
  5
3DC
330
1
100
AcDbSymbolTableRecord
100
AcDbBlockTableRecord
  2
*D33
340
0
  0
BLOCK_RECORD
  5
3EB
330
1
100
AcDbSymbolTableRecord
100
AcDbBlockTableRecord
  2
*D34
340
0
  0
BLOCK_RECORD
  5
3F8
330
1
100
AcDbSymbolTableRecord
100
AcDbBlockTableRecord
  2
*D35
340
0
  0
BLOCK_RECORD
  5
405
330
1
100
AcDbSymbolTableRecord
100
AcDbBlockTableRecord
  2
*D36
340
0
  0
BLOCK_RECORD
  5
412
330
1
100
AcDbSymbolTableRecord
100
AcDbBlockTableRecord
  2
*D37
340
0
  0
BLOCK_RECORD
  5
41F
330
1
100
AcDbSymbolTableRecord
100
AcDbBlockTableRecord
  2
*D38
340
0
  0
BLOCK_RECORD
  5
42C
330
1
100
AcDbSymbolTableRecord
100
AcDbBlockTableRecord
  2
*D39
340
0
  0
BLOCK_RECORD
  5
439
330
1
100
AcDbSymbolTableRecord
100
AcDbBlockTableRecord
  2
*D40
340
0
  0
BLOCK_RECORD
  5
446
330
1
100
AcDbSymbolTableRecord
100
AcDbBlockTableRecord
  2
*D41
340
0
  0
BLOCK_RECORD
  5
4EB
330
1
100
AcDbSymbolTableRecord
100
AcDbBlockTableRecord
  2
*D42
340
0
  0
BLOCK_RECORD
  5
4F8
330
1
100
AcDbSymbolTableRecord
100
AcDbBlockTableRecord
  2
*D43
340
0
  0
BLOCK_RECORD
  5
505
330
1
100
AcDbSymbolTableRecord
100
AcDbBlockTableRecord
  2
*D44
340
0
  0
BLOCK_RECORD
  5
512
330
1
100
AcDbSymbolTableRecord
100
AcDbBlockTableRecord
  2
*D45
340
0
  0
BLOCK_RECORD
  5
51F
330
1
100
AcDbSymbolTableRecord
100
AcDbBlockTableRecord
  2
*D46
340
0
  0
BLOCK_RECORD
  5
52C
330
1
100
AcDbSymbolTableRecord
100
AcDbBlockTableRecord
  2
*D47
340
0
  0
BLOCK_RECORD
  5
539
330
1
100
AcDbSymbolTableRecord
100
AcDbBlockTableRecord
  2
*D48
340
0
  0
BLOCK_RECORD
  5
546
330
1
100
AcDbSymbolTableRecord
100
AcDbBlockTableRecord
  2
*D49
340
0
  0
BLOCK_RECORD
  5
553
330
1
100
AcDbSymbolTableRecord
100
AcDbBlockTableRecord
  2
*D50
340
0
  0
BLOCK_RECORD
  5
6B2
330
1
100
AcDbSymbolTableRecord
100
AcDbBlockTableRecord
  2
*D51
340
0
  0
BLOCK_RECORD
  5
76A
330
1
100
AcDbSymbolTableRecord
100
AcDbBlockTableRecord
  2
*D52
340
0
  0
BLOCK_RECORD
  5
777
330
1
100
AcDbSymbolTableRecord
100
AcDbBlockTableRecord
  2
*D53
340
0
  0
BLOCK_RECORD
  5
784
330
1
100
AcDbSymbolTableRecord
100
AcDbBlockTableRecord
  2
*D54
340
0
  0
BLOCK_RECORD
  5
791
330
1
100
AcDbSymbolTableRecord
100
AcDbBlockTableRecord
  2
*D55
340
0
  0
BLOCK_RECORD
  5
79E
330
1
100
AcDbSymbolTableRecord
100
AcDbBlockTableRecord
  2
*D56
340
0
  0
BLOCK_RECORD
  5
7AB
330
1
100
AcDbSymbolTableRecord
100
AcDbBlockTableRecord
  2
*D57
340
0
  0
BLOCK_RECORD
  5
7B8
330
1
100
AcDbSymbolTableRecord
100
AcDbBlockTableRecord
  2
*D58
340
0
  0
BLOCK_RECORD
  5
80D
330
1
100
AcDbSymbolTableRecord
100
AcDbBlockTableRecord
  2
*D59
340
0
  0
BLOCK_RECORD
  5
81A
330
1
100
AcDbSymbolTableRecord
100
AcDbBlockTableRecord
  2
*D60
340
0
  0
BLOCK_RECORD
  5
827
330
1
100
AcDbSymbolTableRecord
100
AcDbBlockTableRecord
  2
*D61
340
0
  0
BLOCK_RECORD
  5
834
330
1
100
AcDbSymbolTableRecord
100
AcDbBlockTableRecord
  2
*D62
340
0
  0
BLOCK_RECORD
  5
841
330
1
100
AcDbSymbolTableRecord
100
AcDbBlockTableRecord
  2
*D63
340
0
  0
BLOCK_RECORD
  5
84E
330
1
100
AcDbSymbolTableRecord
100
AcDbBlockTableRecord
  2
*D64
340
0
  0
BLOCK_RECORD
  5
85B
330
1
100
AcDbSymbolTableRecord
100
AcDbBlockTableRecord
  2
*D65
340
0
  0
BLOCK_RECORD
  5
922
330
1
100
AcDbSymbolTableRecord
100
AcDbBlockTableRecord
  2
*D66
340
0
  0
BLOCK_RECORD
  5
932
330
1
100
AcDbSymbolTableRecord
100
AcDbBlockTableRecord
  2
*D67
340
0
  0
BLOCK_RECORD
  5
942
330
1
100
AcDbSymbolTableRecord
100
AcDbBlockTableRecord
  2
*D68
340
0
  0
BLOCK_RECORD
  5
952
330
1
100
AcDbSymbolTableRecord
100
AcDbBlockTableRecord
  2
*D69
340
0
  0
BLOCK_RECORD
  5
962
330
1
100
AcDbSymbolTableRecord
100
AcDbBlockTableRecord
  2
*D70
340
0
  0
BLOCK_RECORD
  5
A45
330
1
100
AcDbSymbolTableRecord
100
AcDbBlockTableRecord
  2
*D71
340
0
  0
BLOCK_RECORD
  5
A4D
330
1
100
AcDbSymbolTableRecord
100
AcDbBlockTableRecord
  2
*D72
340
0
  0
BLOCK_RECORD
  5
A55
330
1
100
AcDbSymbolTableRecord
100
AcDbBlockTableRecord
  2
*D73
340
0
  0
BLOCK_RECORD
  5
A5D
330
1
100
AcDbSymbolTableRecord
100
AcDbBlockTableRecord
  2
*D74
340
0
  0
BLOCK_RECORD
  5
A65
330
1
100
AcDbSymbolTableRecord
100
AcDbBlockTableRecord
  2
*D75
340
0
  0
BLOCK_RECORD
  5
A6D
330
1
100
AcDbSymbolTableRecord
100
AcDbBlockTableRecord
  2
*D76
340
0
  0
BLOCK_RECORD
  5
A7A
330
1
100
AcDbSymbolTableRecord
100
AcDbBlockTableRecord
  2
*D77
340
0
  0
BLOCK_RECORD
  5
A87
330
1
100
AcDbSymbolTableRecord
100
AcDbBlockTableRecord
  2
*D78
340
0
  0
BLOCK_RECORD
  5
A94
330
1
100
AcDbSymbolTableRecord
100
AcDbBlockTableRecord
  2
*D79
340
0
  0
BLOCK_RECORD
  5
AA1
330
1
100
AcDbSymbolTableRecord
100
AcDbBlockTableRecord
  2
*D80
340
0
  0
BLOCK_RECORD
  5
AAE
330
1
100
AcDbSymbolTableRecord
100
AcDbBlockTableRecord
  2
*D81
340
0
  0
BLOCK_RECORD
  5
ABB
330
1
100
AcDbSymbolTableRecord
100
AcDbBlockTableRecord
  2
*D82
340
0
  0
BLOCK_RECORD
  5
AC8
330
1
100
AcDbSymbolTableRecord
100
AcDbBlockTableRecord
  2
*D83
340
0
  0
BLOCK_RECORD
  5
AD5
330
1
100
AcDbSymbolTableRecord
100
AcDbBlockTableRecord
  2
*D84
340
0
  0
ENDTAB
  0
ENDSEC
  0
SECTION
  2
BLOCKS
  0
BLOCK
  5
22
330
21
100
AcDbEntity
  8
0
100
AcDbBlockBegin
  2
*Model_Space
 70
     0
 10
0.0
 20
0.0
 30
0.0
  3
*Model_Space
  1

  0
ENDBLK
  5
23
330
21
100
AcDbEntity
  8
0
100
AcDbBlockEnd
  0
BLOCK
  5
1E
330
1D
100
AcDbEntity
 67
     1
  8
0
100
AcDbBlockBegin
  2
*Paper_Space
 70
     0
 10
0.0
 20
0.0
 30
0.0
  3
*Paper_Space
  1

  0
ENDBLK
  5
1F
330
1D
100
AcDbEntity
 67
     1
  8
0
100
AcDbBlockEnd
  0
BLOCK
  5
26
330
25
100
AcDbEntity
 67
     1
  8
0
100
AcDbBlockBegin
  2
*Paper_Space0
 70
     0
 10
0.0
 20
0.0
 30
0.0
  3
*Paper_Space0
  1

  0
ENDBLK
  5
27
330
25
100
AcDbEntity
 67
     1
  8
0
100
AcDbBlockEnd
  0
BLOCK
  5
2E
330
2D
100
AcDbEntity
  8
0
100
AcDbBlockBegin
  2
*D1
 70
     1
 10
0.0
 20
0.0
 30
0.0
  3
*D1
  1

  0
LINE
  5
2F
330
2D
100
AcDbEntity
  8
标注
370
    -2
100
AcDbLine
 10
407.0278305157852
 20
178.1497720044059
 30
0.0
 11
416.3048537223341
 21
178.1497720044059
 31
0.0
  0
LINE
  5
30
330
2D
100
AcDbEntity
  8
标注
370
    -2
100
AcDbLine
 10
407.0278305157852
 20
157.4096145240881
 30
0.0
 11
416.3048537223341
 21
157.4096145240881
 31
0.0
  0
LINE
  5
31
330
2D
100
AcDbEntity
  8
标注
370
    -2
100
AcDbLine
 10
415.9848537223339
 20
177.4997720044059
 30
0.0
 11
415.9848537223339
 21
169.9838599309136
 31
0.0
  0
LINE
  5
32
330
2D
100
AcDbEntity
  8
标注
370
    -2
100
AcDbLine
 10
415.9848537223339
 20
158.0596145240881
 30
0.0
 11
415.9848537223339
 21
165.5755265975803
 31
0.0
  0
SOLID
  5
33
330
2D
100
AcDbEntity
  8
标注
100
AcDbTrace
 10
415.8765203890006
 20
177.4997720044059
 30
0.0
 11
416.0931870556673
 21
177.4997720044059
 31
0.0
 12
415.9848537223339
 22
178.1497720044059
 32
0.0
 13
415.9848537223339
 23
178.1497720044059
 33
0.0
  0
SOLID
  5
34
330
2D
100
AcDbEntity
  8
标注
100
AcDbTrace
 10
415.8765203890006
 20
158.0596145240881
 30
0.0
 11
416.0931870556673
 21
158.0596145240881
 31
0.0
 12
415.9848537223339
 22
157.4096145240881
 32
0.0
 13
415.9848537223339
 23
157.4096145240881
 33
0.0
  0
MTEXT
  5
35
330
2D
100
AcDbEntity
  8
标注
100
AcDbMText
 10
415.9848537223339
 20
167.779693264247
 30
0.0
 40
0.65
 41
0.0
 71
     5
 72
     1
  1
\A1;20 3/4"
 11
0.0000000000000001
 21
1.0
 31
0.0
 73
     1
 44
1.0
1001
ACAD
1000
MTEXTBEGIN
1070
    73
1070
     1
1070
    44
1040
1.0
1070
    74
1070
     0
1000
MTEXTEND
  0
POINT
  5
36
330
2D
100
AcDbEntity
  8
Defpoints
 62
     0
100
AcDbPoint
 10
406.1478305157852
 20
178.1497720044059
 30
0.0
  0
POINT
  5
37
330
2D
100
AcDbEntity
  8
Defpoints
 62
     0
100
AcDbPoint
 10
406.1478305157852
 20
157.4096145240881
 30
0.0
  0
POINT
  5
38
330
2D
100
AcDbEntity
  8
Defpoints
 62
     0
100
AcDbPoint
 10
415.9848537223339
 20
157.4096145240881
 30
0.0
  0
ENDBLK
  5
39
330
2D
100
AcDbEntity
  8
0
100
AcDbBlockEnd
  0
BLOCK
  5
3B
330
3A
100
AcDbEntity
  8
0
100
AcDbBlockBegin
  2
*D2
 70
     1
 10
0.0
 20
0.0
 30
0.0
  3
*D2
  1

  0
LINE
  5
3C
330
3A
100
AcDbEntity
  8
标注
370
    -2
100
AcDbLine
 10
378.1969643740532
 20
195.1899372100287
 30
0.0
 11
376.0650622813532
 21
195.1899372100287
 31
0.0
  0
LINE
  5
3D
330
3A
100
AcDbEntity
  8
标注
370
    -2
100
AcDbLine
 10
383.7444271923532
 20
187.7214332730185
 30
0.0
 11
376.0650622813532
 21
187.7214332730185
 31
0.0
  0
LINE
  5
3E
330
3A
100
AcDbEntity
  8
标注
370
    -2
100
AcDbLine
 10
376.3850622813531
 20
194.5399372100287
 30
0.0
 11
376.3850622813531
 21
193.2806852415236
 31
0.0
  0
LINE
  5
3F
330
3A
100
AcDbEntity
  8
标注
370
    -2
100
AcDbLine
 10
376.3850622813531
 20
188.3714332730185
 30
0.0
 11
376.3850622813531
 21
189.6306852415236
 31
0.0
  0
SOLID
  5
40
330
3A
100
AcDbEntity
  8
标注
100
AcDbTrace
 10
376.2767289480198
 20
194.5399372100287
 30
0.0
 11
376.4933956146865
 21
194.5399372100287
 31
0.0
 12
376.3850622813531
 22
195.1899372100287
 32
0.0
 13
376.3850622813531
 23
195.1899372100287
 33
0.0
  0
SOLID
  5
41
330
3A
100
AcDbEntity
  8
标注
100
AcDbTrace
 10
376.2767289480198
 20
188.3714332730185
 30
0.0
 11
376.4933956146865
 21
188.3714332730185
 31
0.0
 12
376.3850622813531
 22
187.7214332730185
 32
0.0
 13
376.3850622813531
 23
187.7214332730185
 33
0.0
  0
MTEXT
  5
42
330
3A
100
AcDbEntity
  8
标注
100
AcDbMText
 10
376.3850622813531
 20
191.4556852415237
 30
0.0
 40
0.65
 41
0.0
 71
     5
 72
     1
  1
\A1;7 1/2"
 11
0.0000000000000001
 21
1.0
 31
0.0
 73
     1
 44
1.0
1001
ACAD
1000
MTEXTBEGIN
1070
    73
1070
     1
1070
    44
1040
1.0
1070
    74
1070
     0
1000
MTEXTEND
  0
POINT
  5
43
330
3A
100
AcDbEntity
  8
Defpoints
 62
     0
100
AcDbPoint
 10
379.0769643740532
 20
195.1899372100287
 30
0.0
  0
POINT
  5
44
330
3A
100
AcDbEntity
  8
Defpoints
 62
     0
100
AcDbPoint
 10
384.6244271923532
 20
187.7214332730185
 30
0.0
  0
POINT
  5
45
330
3A
100
AcDbEntity
  8
Defpoints
 62
     0
100
AcDbPoint
 10
376.3850622813531
 20
187.7214332730185
 30
0.0
  0
ENDBLK
  5
46
330
3A
100
AcDbEntity
  8
0
100
AcDbBlockEnd
  0
BLOCK
  5
48
330
47
100
AcDbEntity
  8
0
100
AcDbBlockBegin
  2
*D3
 70
     1
 10
0.0
 20
0.0
 30
0.0
  3
*D3
  1

  0
LINE
  5
49
330
47
100
AcDbEntity
  8
标注
370
    -2
100
AcDbLine
 10
403.090822641723
 20
177.1497720044059
 30
0.0
 11
413.8668928861417
 21
177.1497720044059
 31
0.0
  0
LINE
  5
4A
330
47
100
AcDbEntity
  8
标注
370
    -2
100
AcDbLine
 10
403.090822641696
 20
158.409614524091
 30
0.0
 11
413.8668928861417
 21
158.409614524091
 31
0.0
  0
LINE
  5
4B
330
47
100
AcDbEntity
  8
标注
370
    -2
100
AcDbLine
 10
413.5468928861416
 20
176.4997720044059
 30
0.0
 11
413.5468928861416
 21
169.9296932642484
 31
0.0
  0
LINE
  5
4C
330
47
100
AcDbEntity
  8
标注
370
    -2
100
AcDbLine
 10
413.5468928861416
 20
159.059614524091
 30
0.0
 11
413.5468928861416
 21
165.6296932642484
 31
0.0
  0
SOLID
  5
4D
330
47
100
AcDbEntity
  8
标注
100
AcDbTrace
 10
413.4385595528083
 20
176.4997720044059
 30
0.0
 11
413.655226219475
 21
176.4997720044059
 31
0.0
 12
413.5468928861416
 22
177.1497720044059
 32
0.0
 13
413.5468928861416
 23
177.1497720044059
 33
0.0
  0
SOLID
  5
4E
330
47
100
AcDbEntity
  8
标注
100
AcDbTrace
 10
413.4385595528083
 20
159.059614524091
 30
0.0
 11
413.655226219475
 21
159.059614524091
 31
0.0
 12
413.5468928861416
 22
158.409614524091
 32
0.0
 13
413.5468928861416
 23
158.409614524091
 33
0.0
  0
MTEXT
  5
4F
330
47
100
AcDbEntity
  8
标注
100
AcDbMText
 10
413.5468928861416
 20
167.7796932642485
 30
0.0
 40
0.65
 41
0.0
 71
     5
 72
     1
  1
\A1;18 3/4"
 11
0.0000000000000001
 21
1.0
 31
0.0
 73
     1
 44
1.0
1001
ACAD
1000
MTEXTBEGIN
1070
    73
1070
     1
1070
    44
1040
1.0
1070
    74
1070
     0
1000
MTEXTEND
  0
POINT
  5
50
330
47
100
AcDbEntity
  8
Defpoints
 62
     0
100
AcDbPoint
 10
402.210822641723
 20
177.1497720044059
 30
0.0
  0
POINT
  5
51
330
47
100
AcDbEntity
  8
Defpoints
 62
     0
100
AcDbPoint
 10
402.210822641696
 20
158.409614524091
 30
0.0
  0
POINT
  5
52
330
47
100
AcDbEntity
  8
Defpoints
 62
     0
100
AcDbPoint
 10
413.5468928861416
 20
158.409614524091
 30
0.0
  0
ENDBLK
  5
53
330
47
100
AcDbEntity
  8
0
100
AcDbBlockEnd
  0
BLOCK
  5
55
330
54
100
AcDbEntity
  8
0
100
AcDbBlockBegin
  2
*D4
 70
     1
 10
0.0
 20
0.0
 30
0.0
  3
*D4
  1

  0
LINE
  5
56
330
54
100
AcDbEntity
  8
标注
370
    -2
100
AcDbLine
 10
385.6930273661792
 20
174.9450475949686
 30
0.0
 11
376.0248467579627
 21
174.9450475949686
 31
0.0
  0
LINE
  5
57
330
54
100
AcDbEntity
  8
标注
370
    -2
100
AcDbLine
 10
385.6930273661792
 20
158.4096145241025
 30
0.0
 11
376.0248467579627
 21
158.4096145241025
 31
0.0
  0
LINE
  5
58
330
54
100
AcDbEntity
  8
标注
370
    -2
100
AcDbLine
 10
376.3448467579627
 20
174.2950475949686
 30
0.0
 11
376.3448467579627
 21
168.718997726202
 31
0.0
  0
LINE
  5
59
330
54
100
AcDbEntity
  8
标注
370
    -2
100
AcDbLine
 10
376.3448467579627
 20
159.0596145241025
 30
0.0
 11
376.3448467579627
 21
164.6356643928688
 31
0.0
  0
SOLID
  5
5A
330
54
100
AcDbEntity
  8
标注
100
AcDbTrace
 10
376.2365134246293
 20
174.2950475949686
 30
0.0
 11
376.453180091296
 21
174.2950475949686
 31
0.0
 12
376.3448467579627
 22
174.9450475949686
 32
0.0
 13
376.3448467579627
 23
174.9450475949686
 33
0.0
  0
SOLID
  5
5B
330
54
100
AcDbEntity
  8
标注
100
AcDbTrace
 10
376.2365134246293
 20
159.0596145241025
 30
0.0
 11
376.453180091296
 21
159.0596145241025
 31
0.0
 12
376.3448467579627
 22
158.4096145241025
 32
0.0
 13
376.3448467579627
 23
158.4096145241025
 33
0.0
  0
MTEXT
  5
5C
330
54
100
AcDbEntity
  8
标注
100
AcDbMText
 10
376.3448467579627
 20
166.6773310595355
 30
0.0
 40
0.65
 41
0.0
 71
     5
 72
     1
  1
\A1;16 1/2"
 11
0.0000000000000001
 21
1.0
 31
0.0
 73
     1
 44
1.0
1001
ACAD
1000
MTEXTBEGIN
1070
    73
1070
     1
1070
    44
1040
1.0
1070
    74
1070
     0
1000
MTEXTEND
  0
POINT
  5
5D
330
54
100
AcDbEntity
  8
Defpoints
 62
     0
100
AcDbPoint
 10
386.5730273661792
 20
174.9450475949686
 30
0.0
  0
POINT
  5
5E
330
54
100
AcDbEntity
  8
Defpoints
 62
     0
100
AcDbPoint
 10
386.5730273661792
 20
158.4096145241025
 30
0.0
  0
POINT
  5
5F
330
54
100
AcDbEntity
  8
Defpoints
 62
     0
100
AcDbPoint
 10
376.3448467579627
 20
158.4096145241025
 30
0.0
  0
ENDBLK
  5
60
330
54
100
AcDbEntity
  8
0
100
AcDbBlockEnd
  0
BLOCK
  5
62
330
61
100
AcDbEntity
  8
0
100
AcDbBlockBegin
  2
*D5
 70
     1
 10
0.0
 20
0.0
 30
0.0
  3
*D5
  1

  0
LINE
  5
63
330
61
100
AcDbEntity
  8
标注
370
    -2
100
AcDbLine
 10
382.7402714606673
 20
175.9450475949687
 30
0.0
 11
373.6836858425663
 21
175.9450475949687
 31
0.0
  0
LINE
  5
64
330
61
100
AcDbEntity
  8
标注
370
    -2
100
AcDbLine
 10
382.7402714606673
 20
157.4096145241047
 30
0.0
 11
373.6836858425663
 21
157.4096145241047
 31
0.0
  0
LINE
  5
65
330
61
100
AcDbEntity
  8
标注
370
    -2
100
AcDbLine
 10
374.0036858425663
 20
175.2950475949687
 30
0.0
 11
374.0036858425663
 21
168.7189977262033
 31
0.0
  0
LINE
  5
66
330
61
100
AcDbEntity
  8
标注
370
    -2
100
AcDbLine
 10
374.0036858425663
 20
158.0596145241047
 30
0.0
 11
374.0036858425663
 21
164.63566439287
 31
0.0
  0
SOLID
  5
67
330
61
100
AcDbEntity
  8
标注
100
AcDbTrace
 10
373.895352509233
 20
175.2950475949687
 30
0.0
 11
374.1120191758997
 21
175.2950475949687
 31
0.0
 12
374.0036858425663
 22
175.9450475949687
 32
0.0
 13
374.0036858425663
 23
175.9450475949687
 33
0.0
  0
SOLID
  5
68
330
61
100
AcDbEntity
  8
标注
100
AcDbTrace
 10
373.895352509233
 20
158.0596145241047
 30
0.0
 11
374.1120191758997
 21
158.0596145241047
 31
0.0
 12
374.0036858425663
 22
157.4096145241047
 32
0.0
 13
374.0036858425663
 23
157.4096145241047
 33
0.0
  0
MTEXT
  5
69
330
61
100
AcDbEntity
  8
标注
100
AcDbMText
 10
374.0036858425662
 20
166.6773310595367
 30
0.0
 40
0.65
 41
0.0
 71
     5
 72
     1
  1
\A1;18 1/2"
 11
0.0000000000000001
 21
1.0
 31
0.0
 73
     1
 44
1.0
1001
ACAD
1000
MTEXTBEGIN
1070
    73
1070
     1
1070
    44
1040
1.0
1070
    74
1070
     0
1000
MTEXTEND
  0
POINT
  5
6A
330
61
100
AcDbEntity
  8
Defpoints
 62
     0
100
AcDbPoint
 10
383.6202714606674
 20
175.9450475949687
 30
0.0
  0
POINT
  5
6B
330
61
100
AcDbEntity
  8
Defpoints
 62
     0
100
AcDbPoint
 10
383.6202714606674
 20
157.4096145241047
 30
0.0
  0
POINT
  5
6C
330
61
100
AcDbEntity
  8
Defpoints
 62
     0
100
AcDbPoint
 10
374.0036858425663
 20
157.4096145241047
 30
0.0
  0
ENDBLK
  5
6D
330
61
100
AcDbEntity
  8
0
100
AcDbBlockEnd
  0
BLOCK
  5
6F
330
6E
100
AcDbEntity
  8
0
100
AcDbBlockBegin
  2
*D6
 70
     1
 10
0.0
 20
0.0
 30
0.0
  3
*D6
  1

  0
LINE
  5
70
330
6E
100
AcDbEntity
  8
标注
370
    -2
100
AcDbLine
 10
410.0848383898012
 20
166.8996932642485
 30
0.0
 11
410.0848383898012
 21
154.7354891656021
 31
0.0
  0
LINE
  5
71
330
6E
100
AcDbEntity
  8
标注
370
    -2
100
AcDbLine
 10
394.3368068937383
 20
166.8996932642485
 30
0.0
 11
394.3368068937383
 21
154.7354891656021
 31
0.0
  0
LINE
  5
72
330
6E
100
AcDbEntity
  8
标注
370
    -2
100
AcDbLine
 10
409.4348383898013
 20
155.0554891656021
 30
0.0
 11
404.3608226417696
 21
155.0554891656021
 31
0.0
  0
LINE
  5
73
330
6E
100
AcDbEntity
  8
标注
370
    -2
100
AcDbLine
 10
394.9868068937383
 20
155.0554891656021
 30
0.0
 11
400.0608226417697
 21
155.0554891656021
 31
0.0
  0
SOLID
  5
74
330
6E
100
AcDbEntity
  8
标注
100
AcDbTrace
 10
409.4348383898013
 20
155.1638224989354
 30
0.0
 11
409.4348383898013
 21
154.9471558322688
 31
0.0
 12
410.0848383898012
 22
155.0554891656021
 32
0.0
 13
410.0848383898012
 23
155.0554891656021
 33
0.0
  0
SOLID
  5
75
330
6E
100
AcDbEntity
  8
标注
100
AcDbTrace
 10
394.9868068937383
 20
155.1638224989354
 30
0.0
 11
394.9868068937383
 21
154.9471558322688
 31
0.0
 12
394.3368068937383
 22
155.0554891656021
 32
0.0
 13
394.3368068937383
 23
155.0554891656021
 33
0.0
  0
MTEXT
  5
76
330
6E
100
AcDbEntity
  8
标注
100
AcDbMText
 10
402.2108226417698
 20
155.0554891656021
 30
0.0
 40
0.65
 41
0.0
 71
     5
 72
     1
  1
\A1;15 3/4"
 73
     1
 44
1.0
1001
ACAD
1000
MTEXTBEGIN
1070
    73
1070
     1
1070
    44
1040
1.0
1070
    74
1070
     0
1000
MTEXTEND
  0
POINT
  5
77
330
6E
100
AcDbEntity
  8
Defpoints
 62
     0
100
AcDbPoint
 10
410.0848383898012
 20
167.7796932642485
 30
0.0
  0
POINT
  5
78
330
6E
100
AcDbEntity
  8
Defpoints
 62
     0
100
AcDbPoint
 10
394.3368068937383
 20
167.7796932642485
 30
0.0
  0
POINT
  5
79
330
6E
100
AcDbEntity
  8
Defpoints
 62
     0
100
AcDbPoint
 10
394.3368068937383
 20
155.0554891656021
 30
0.0
  0
ENDBLK
  5
7A
330
6E
100
AcDbEntity
  8
0
100
AcDbBlockEnd
  0
BLOCK
  5
7C
330
7B
100
AcDbEntity
  8
0
100
AcDbBlockBegin
  2
*D7
 70
     1
 10
0.0
 20
0.0
 30
0.0
  3
*D7
  1

  0
LINE
  5
7D
330
7B
100
AcDbEntity
  8
标注
370
    -2
100
AcDbLine
 10
393.0690903583053
 20
165.7973310595366
 30
0.0
 11
393.0690903583053
 21
154.7314797938872
 31
0.0
  0
LINE
  5
7E
330
7B
100
AcDbEntity
  8
标注
370
    -2
100
AcDbLine
 10
380.0769643740532
 20
165.7973310595356
 30
0.0
 11
380.0769643740532
 21
154.7314797938872
 31
0.0
  0
LINE
  5
7F
330
7B
100
AcDbEntity
  8
标注
370
    -2
100
AcDbLine
 10
392.4190903583052
 20
155.0514797938872
 30
0.0
 11
387.4230273661792
 21
155.0514797938872
 31
0.0
  0
LINE
  5
80
330
7B
100
AcDbEntity
  8
标注
370
    -2
100
AcDbLine
 10
380.7269643740532
 20
155.0514797938872
 30
0.0
 11
385.7230273661792
 21
155.0514797938872
 31
0.0
  0
SOLID
  5
81
330
7B
100
AcDbEntity
  8
标注
100
AcDbTrace
 10
392.4190903583052
 20
155.1598131272205
 30
0.0
 11
392.4190903583052
 21
154.9431464605538
 31
0.0
 12
393.0690903583053
 22
155.0514797938872
 32
0.0
 13
393.0690903583053
 23
155.0514797938872
 33
0.0
  0
SOLID
  5
82
330
7B
100
AcDbEntity
  8
标注
100
AcDbTrace
 10
380.7269643740532
 20
155.1598131272205
 30
0.0
 11
380.7269643740532
 21
154.9431464605538
 31
0.0
 12
380.0769643740532
 22
155.0514797938872
 32
0.0
 13
380.0769643740532
 23
155.0514797938872
 33
0.0
  0
MTEXT
  5
83
330
7B
100
AcDbEntity
  8
标注
100
AcDbMText
 10
386.5730273661792
 20
155.0514797938872
 30
0.0
 40
0.65
 41
0.0
 71
     5
 72
     1
  1
\A1;13"
 73
     1
 44
1.0
1001
ACAD
1000
MTEXTBEGIN
1070
    73
1070
     1
1070
    44
1040
1.0
1070
    74
1070
     0
1000
MTEXTEND
  0
POINT
  5
84
330
7B
100
AcDbEntity
  8
Defpoints
 62
     0
100
AcDbPoint
 10
393.0690903583053
 20
166.6773310595366
 30
0.0
  0
POINT
  5
85
330
7B
100
AcDbEntity
  8
Defpoints
 62
     0
100
AcDbPoint
 10
380.0769643740532
 20
166.6773310595356
 30
0.0
  0
POINT
  5
86
330
7B
100
AcDbEntity
  8
Defpoints
 62
     0
100
AcDbPoint
 10
380.0769643740532
 20
155.0514797938872
 30
0.0
  0
ENDBLK
  5
87
330
7B
100
AcDbEntity
  8
0
100
AcDbBlockEnd
  0
BLOCK
  5
89
330
88
100
AcDbEntity
  8
0
100
AcDbBlockBegin
  2
*D8
 70
     1
 10
0.0
 20
0.0
 30
0.0
  3
*D8
  1

  0
LINE
  5
8A
330
88
100
AcDbEntity
  8
标注
370
    -2
100
AcDbLine
 10
411.084838389801
 20
161.4666223981038
 30
0.0
 11
411.084838389801
 21
152.488081526451
 31
0.0
  0
LINE
  5
8B
330
88
100
AcDbEntity
  8
标注
370
    -2
100
AcDbLine
 10
379.0769643740532
 20
161.0729216107189
 30
0.0
 11
379.0769643740532
 21
152.488081526451
 31
0.0
  0
LINE
  5
8C
330
88
100
AcDbEntity
  8
标注
370
    -2
100
AcDbLine
 10
410.4348383898011
 20
152.808081526451
 30
0.0
 11
396.0392347152604
 21
152.808081526451
 31
0.0
  0
LINE
  5
8D
330
88
100
AcDbEntity
  8
标注
370
    -2
100
AcDbLine
 10
379.7269643740532
 20
152.808081526451
 30
0.0
 11
394.1225680485938
 21
152.808081526451
 31
0.0
  0
SOLID
  5
8E
330
88
100
AcDbEntity
  8
标注
100
AcDbTrace
 10
410.4348383898011
 20
152.9164148597843
 30
0.0
 11
410.4348383898011
 21
152.6997481931176
 31
0.0
 12
411.084838389801
 22
152.808081526451
 32
0.0
 13
411.084838389801
 23
152.808081526451
 33
0.0
  0
SOLID
  5
8F
330
88
100
AcDbEntity
  8
标注
100
AcDbTrace
 10
379.7269643740532
 20
152.9164148597843
 30
0.0
 11
379.7269643740532
 21
152.6997481931176
 31
0.0
 12
379.0769643740532
 22
152.808081526451
 32
0.0
 13
379.0769643740532
 23
152.808081526451
 33
0.0
  0
MTEXT
  5
90
330
88
100
AcDbEntity
  8
标注
100
AcDbMText
 10
395.0809013819271
 20
152.808081526451
 30
0.0
 40
0.65
 41
0.0
 71
     5
 72
     1
  1
\A1;32"
 73
     1
 44
1.0
1001
ACAD
1000
MTEXTBEGIN
1070
    73
1070
     1
1070
    44
1040
1.0
1070
    74
1070
     0
1000
MTEXTEND
  0
POINT
  5
91
330
88
100
AcDbEntity
  8
Defpoints
 62
     0
100
AcDbPoint
 10
411.084838389801
 20
162.3466223981038
 30
0.0
  0
POINT
  5
92
330
88
100
AcDbEntity
  8
Defpoints
 62
     0
100
AcDbPoint
 10
379.0769643740532
 20
161.9529216107189
 30
0.0
  0
POINT
  5
93
330
88
100
AcDbEntity
  8
Defpoints
 62
     0
100
AcDbPoint
 10
379.0769643740532
 20
152.808081526451
 30
0.0
  0
ENDBLK
  5
94
330
88
100
AcDbEntity
  8
0
100
AcDbBlockEnd
  0
BLOCK
  5
96
330
95
100
AcDbEntity
  8
0
100
AcDbBlockBegin
  2
*D9
 70
     1
 10
0.0
 20
0.0
 30
0.0
  3
*D9
  1

  0
LINE
  5
97
330
95
100
AcDbEntity
  8
标注
370
    -2
100
AcDbLine
 10
396.4631943707655
 20
160.7984281803391
 30
0.0
 11
395.9653630588314
 21
160.380499974952
 31
0.0
  0
MTEXT
  5
98
330
95
100
AcDbEntity
  8
标注
100
AcDbMText
 10
398.1928390571003
 20
162.2504607913633
 30
0.0
 40
0.65
 41
0.0
 71
     5
 72
     1
  1
\A1;R3 7/8"
 11
0.7658943260523327
 21
0.6429664698262605
 31
0.0
 73
     1
 44
1.0
1001
ACAD
1000
MTEXTBEGIN
1070
    73
1070
     1
1070
    44
1040
1.0
1070
    74
1070
     0
1000
MTEXTEND
  0
SOLID
  5
99
330
95
100
AcDbEntity
  8
标注
100
AcDbTrace
 10
395.8957083579337
 20
160.4634718602743
 30
0.0
 11
396.0350177597293
 21
160.2975280896297
 31
0.0
 12
395.4675317468974
 22
159.9625717695649
 32
0.0
 13
395.4675317468974
 23
159.9625717695649
 33
0.0
  0
POINT
  5
9A
330
95
100
AcDbEntity
  8
Defpoints
 62
     0
100
AcDbPoint
 10
395.4675317468974
 20
159.9625717695649
 30
0.0
  0
POINT
  5
9B
330
95
100
AcDbEntity
  8
Defpoints
 62
     0
100
AcDbPoint
 10
398.4828637392295
 20
162.493935823999
 30
0.0
  0
ENDBLK
  5
9C
330
95
100
AcDbEntity
  8
0
100
AcDbBlockEnd
  0
BLOCK
  5
9E
330
9D
100
AcDbEntity
  8
0
100
AcDbBlockBegin
  2
*D10
 70
     1
 10
0.0
 20
0.0
 30
0.0
  3
*D10
  1

  0
LINE
  5
9F
330
9D
100
AcDbEntity
  8
标注
370
    -2
100
AcDbLine
 10
382.1220613221904
 20
160.6464114452224
 30
0.0
 11
381.6237134107928
 21
160.2290993806881
 31
0.0
  0
MTEXT
  5
A0
330
9D
100
AcDbEntity
  8
标注
100
AcDbMText
 10
383.770442875274
 20
162.0267513509897
 30
0.0
 40
0.65
 41
0.0
 71
     5
 72
     1
  1
\A1;R3 1/2"
 11
0.7666890944574865
 21
0.642018560822006
 31
0.0
 73
     1
 44
1.0
1001
ACAD
1000
MTEXTBEGIN
1070
    73
1070
     1
1070
    44
1040
1.0
1070
    74
1070
     0
1000
MTEXTEND
  0
SOLID
  5
A1
330
9D
100
AcDbEntity
  8
标注
100
AcDbTrace
 10
381.5541614000372
 20
160.3121573659209
 30
0.0
 11
381.6932654215486
 21
160.1460413954552
 31
0.0
 12
381.1253654993956
 22
159.8117873161538
 32
0.0
 13
381.1253654993956
 23
159.8117873161538
 33
0.0
  0
POINT
  5
A2
330
9D
100
AcDbEntity
  8
Defpoints
 62
     0
100
AcDbPoint
 10
381.1253654993956
 20
159.8117873161538
 30
0.0
  0
POINT
  5
A3
330
9D
100
AcDbEntity
  8
Defpoints
 62
     0
100
AcDbPoint
 10
383.8419804010166
 20
162.0866562324522
 30
0.0
  0
ENDBLK
  5
A4
330
9D
100
AcDbEntity
  8
0
100
AcDbBlockEnd
  0
BLOCK
  5
A6
330
A5
100
AcDbEntity
  8
0
100
AcDbBlockBegin
  2
*D11
 70
     1
 10
0.0
 20
0.0
 30
0.0
  3
*D11
  1

  0
LINE
  5
A7
330
A5
100
AcDbEntity
  8
标注
370
    -2
100
AcDbLine
 10
410.0848383898012
 20
166.8996932642485
 30
0.0
 11
410.0848383898012
 21
154.7354891656021
 31
0.0
  0
LINE
  5
A8
330
A5
100
AcDbEntity
  8
标注
370
    -2
100
AcDbLine
 10
411.084838389801
 20
161.4666223981038
 30
0.0
 11
411.084838389801
 21
154.7354891656021
 31
0.0
  0
LINE
  5
A9
330
A5
100
AcDbEntity
  8
标注
370
    -2
100
AcDbLine
 10
409.4348383898013
 20
155.0554891656021
 30
0.0
 11
408.7848383898011
 21
155.0554891656021
 31
0.0
  0
LINE
  5
AA
330
A5
100
AcDbEntity
  8
标注
370
    -2
100
AcDbLine
 10
411.734838389801
 20
155.0554891656021
 30
0.0
 11
412.384838389801
 21
155.0554891656021
 31
0.0
  0
LINE
  5
AB
330
A5
100
AcDbEntity
  8
标注
370
    -2
100
AcDbLine
 10
410.0848383898012
 20
155.0554891656021
 30
0.0
 11
411.084838389801
 21
155.0554891656021
 31
0.0
  0
SOLID
  5
AC
330
A5
100
AcDbEntity
  8
标注
100
AcDbTrace
 10
409.4348383898013
 20
155.1638224989354
 30
0.0
 11
409.4348383898013
 21
154.9471558322688
 31
0.0
 12
410.0848383898012
 22
155.0554891656021
 32
0.0
 13
410.0848383898012
 23
155.0554891656021
 33
0.0
  0
SOLID
  5
AD
330
A5
100
AcDbEntity
  8
标注
100
AcDbTrace
 10
411.734838389801
 20
155.1638224989354
 30
0.0
 11
411.734838389801
 21
154.9471558322688
 31
0.0
 12
411.084838389801
 22
155.0554891656021
 32
0.0
 13
411.084838389801
 23
155.0554891656021
 33
0.0
  0
MTEXT
  5
AE
330
A5
100
AcDbEntity
  8
标注
100
AcDbMText
 10
412.9098383898011
 20
155.0554891656021
 30
0.0
 40
0.65
 41
0.0
 71
     5
 72
     1
  1
\A1;1"
 73
     1
 44
1.0
1001
ACAD
1000
MTEXTBEGIN
1070
    73
1070
     1
1070
    44
1040
1.0
1070
    74
1070
     0
1000
MTEXTEND
  0
POINT
  5
AF
330
A5
100
AcDbEntity
  8
Defpoints
 62
     0
100
AcDbPoint
 10
410.0848383898012
 20
167.7796932642485
 30
0.0
  0
POINT
  5
B0
330
A5
100
AcDbEntity
  8
Defpoints
 62
     0
100
AcDbPoint
 10
411.084838389801
 20
162.3466223981038
 30
0.0
  0
POINT
  5
B1
330
A5
100
AcDbEntity
  8
Defpoints
 62
     0
100
AcDbPoint
 10
411.084838389801
 20
155.0554891656021
 30
0.0
  0
ENDBLK
  5
B2
330
A5
100
AcDbEntity
  8
0
100
AcDbBlockEnd
  0
BLOCK
  5
B4
330
B3
100
AcDbEntity
  8
0
100
AcDbBlockBegin
  2
*D12
 70
     1
 10
0.0
 20
0.0
 30
0.0
  3
*D12
  1

  0
LINE
  5
B5
330
B3
100
AcDbEntity
  8
标注
370
    -2
100
AcDbLine
 10
393.0690903583053
 20
167.5573310595366
 30
0.0
 11
393.0690903583053
 21
167.2196932642485
 31
0.0
  0
LINE
  5
B6
330
B3
100
AcDbEntity
  8
标注
370
    -2
100
AcDbLine
 10
394.3368068937383
 20
167.5573310595366
 30
0.0
 11
394.3368068937383
 21
167.2196932642485
 31
0.0
  0
LINE
  5
B7
330
B3
100
AcDbEntity
  8
标注
370
    -2
100
AcDbLine
 10
392.4190903583053
 20
166.8996932642485
 30
0.0
 11
391.7690903583052
 21
166.8996932642485
 31
0.0
  0
LINE
  5
B8
330
B3
100
AcDbEntity
  8
标注
370
    -2
100
AcDbLine
 10
394.9868068937383
 20
166.8996932642485
 30
0.0
 11
395.6368068937383
 21
166.8996932642485
 31
0.0
  0
LINE
  5
B9
330
B3
100
AcDbEntity
  8
标注
370
    -2
100
AcDbLine
 10
393.0690903583053
 20
166.8996932642485
 30
0.0
 11
394.3368068937383
 21
166.8996932642485
 31
0.0
  0
SOLID
  5
BA
330
B3
100
AcDbEntity
  8
标注
100
AcDbTrace
 10
392.4190903583053
 20
167.0080265975818
 30
0.0
 11
392.4190903583053
 21
166.7913599309152
 31
0.0
 12
393.0690903583053
 22
166.8996932642485
 32
0.0
 13
393.0690903583053
 23
166.8996932642485
 33
0.0
  0
SOLID
  5
BB
330
B3
100
AcDbEntity
  8
标注
100
AcDbTrace
 10
394.9868068937383
 20
167.0080265975818
 30
0.0
 11
394.9868068937383
 21
166.7913599309152
 31
0.0
 12
394.3368068937383
 22
166.8996932642485
 32
0.0
 13
394.3368068937383
 23
166.8996932642485
 33
0.0
  0
MTEXT
  5
BC
330
B3
100
AcDbEntity
  8
标注
100
AcDbMText
 10
397.3534735604049
 20
166.8996932642485
 30
0.0
 40
0.65
 41
0.0
 71
     5
 72
     1
  1
\A1;1 1/4"
 73
     1
 44
1.0
1001
ACAD
1000
MTEXTBEGIN
1070
    73
1070
     1
1070
    44
1040
1.0
1070
    74
1070
     0
1000
MTEXTEND
  0
POINT
  5
BD
330
B3
100
AcDbEntity
  8
Defpoints
 62
     0
100
AcDbPoint
 10
393.0690903583053
 20
166.6773310595366
 30
0.0
  0
POINT
  5
BE
330
B3
100
AcDbEntity
  8
Defpoints
 62
     0
100
AcDbPoint
 10
394.3368068937383
 20
166.6773310595366
 30
0.0
  0
POINT
  5
BF
330
B3
100
AcDbEntity
  8
Defpoints
 62
     0
100
AcDbPoint
 10
394.3368068937383
 20
166.8996932642485
 30
0.0
  0
ENDBLK
  5
C0
330
B3
100
AcDbEntity
  8
0
100
AcDbBlockEnd
  0
BLOCK
  5
C2
330
C1
100
AcDbEntity
  8
0
100
AcDbBlockBegin
  2
*D13
 70
     1
 10
0.0
 20
0.0
 30
0.0
  3
*D13
  1

  0
LINE
  5
C3
330
C1
100
AcDbEntity
  8
标注
370
    -2
100
AcDbLine
 10
403.970822641723
 20
177.1497720044059
 30
0.0
 11
413.8668928861417
 21
177.1497720044059
 31
0.0
  0
LINE
  5
C4
330
C1
100
AcDbEntity
  8
标注
370
    -2
100
AcDbLine
 10
407.0278305157852
 20
178.1497720044059
 30
0.0
 11
413.8668928861417
 21
178.1497720044059
 31
0.0
  0
LINE
  5
C5
330
C1
100
AcDbEntity
  8
标注
370
    -2
100
AcDbLine
 10
413.5468928861416
 20
176.4997720044059
 30
0.0
 11
413.5468928861416
 21
175.8497720044059
 31
0.0
  0
LINE
  5
C6
330
C1
100
AcDbEntity
  8
标注
370
    -2
100
AcDbLine
 10
413.5468928861416
 20
178.7997720044059
 30
0.0
 11
413.5468928861416
 21
179.4497720044059
 31
0.0
  0
LINE
  5
C7
330
C1
100
AcDbEntity
  8
标注
370
    -2
100
AcDbLine
 10
413.5468928861416
 20
177.1497720044059
 30
0.0
 11
413.5468928861416
 21
178.1497720044059
 31
0.0
  0
SOLID
  5
C8
330
C1
100
AcDbEntity
  8
标注
100
AcDbTrace
 10
413.4385595528083
 20
176.4997720044059
 30
0.0
 11
413.655226219475
 21
176.4997720044059
 31
0.0
 12
413.5468928861416
 22
177.1497720044059
 32
0.0
 13
413.5468928861416
 23
177.1497720044059
 33
0.0
  0
SOLID
  5
C9
330
C1
100
AcDbEntity
  8
标注
100
AcDbTrace
 10
413.4385595528083
 20
178.7997720044059
 30
0.0
 11
413.655226219475
 21
178.7997720044059
 31
0.0
 12
413.5468928861416
 22
178.1497720044059
 32
0.0
 13
413.5468928861416
 23
178.1497720044059
 33
0.0
  0
MTEXT
  5
CA
330
C1
100
AcDbEntity
  8
标注
100
AcDbMText
 10
413.5468928861416
 20
179.9747720044059
 30
0.0
 40
0.65
 41
0.0
 71
     5
 72
     1
  1
\A1;1"
 11
0.0000000000000001
 21
1.0
 31
0.0
 73
     1
 44
1.0
1001
ACAD
1000
MTEXTBEGIN
1070
    73
1070
     1
1070
    44
1040
1.0
1070
    74
1070
     0
1000
MTEXTEND
  0
POINT
  5
CB
330
C1
100
AcDbEntity
  8
Defpoints
 62
     0
100
AcDbPoint
 10
403.090822641723
 20
177.1497720044059
 30
0.0
  0
POINT
  5
CC
330
C1
100
AcDbEntity
  8
Defpoints
 62
     0
100
AcDbPoint
 10
406.1478305157852
 20
178.1497720044059
 30
0.0
  0
POINT
  5
CD
330
C1
100
AcDbEntity
  8
Defpoints
 62
     0
100
AcDbPoint
 10
413.5468928861416
 20
178.1497720044059
 30
0.0
  0
ENDBLK
  5
CE
330
C1
100
AcDbEntity
  8
0
100
AcDbBlockEnd
  0
BLOCK
  5
D0
330
CF
100
AcDbEntity
  8
0
100
AcDbBlockBegin
  2
*D14
 70
     1
 10
0.0
 20
0.0
 30
0.0
  3
*D14
  1

  0
LINE
  5
D1
330
CF
100
AcDbEntity
  8
标注
370
    -2
100
AcDbLine
 10
384.8130273661792
 20
158.4096145241025
 30
0.0
 11
376.0248467579627
 21
158.4096145241025
 31
0.0
  0
LINE
  5
D2
330
CF
100
AcDbEntity
  8
标注
370
    -2
100
AcDbLine
 10
382.740271460664
 20
157.4096145241047
 30
0.0
 11
376.0248467579627
 21
157.4096145241047
 31
0.0
  0
LINE
  5
D3
330
CF
100
AcDbEntity
  8
标注
370
    -2
100
AcDbLine
 10
376.3448467579627
 20
159.0596145241025
 30
0.0
 11
376.3448467579627
 21
159.7096145241025
 31
0.0
  0
LINE
  5
D4
330
CF
100
AcDbEntity
  8
标注
370
    -2
100
AcDbLine
 10
376.3448467579627
 20
156.7596145241046
 30
0.0
 11
376.3448467579627
 21
156.1096145241047
 31
0.0
  0
LINE
  5
D5
330
CF
100
AcDbEntity
  8
标注
370
    -2
100
AcDbLine
 10
376.3448467579627
 20
158.4096145241025
 30
0.0
 11
376.3448467579627
 21
157.4096145241047
 31
0.0
  0
SOLID
  5
D6
330
CF
100
AcDbEntity
  8
标注
100
AcDbTrace
 10
376.2365134246293
 20
159.0596145241025
 30
0.0
 11
376.453180091296
 21
159.0596145241025
 31
0.0
 12
376.3448467579627
 22
158.4096145241025
 32
0.0
 13
376.3448467579627
 23
158.4096145241025
 33
0.0
  0
SOLID
  5
D7
330
CF
100
AcDbEntity
  8
标注
100
AcDbTrace
 10
376.2365134246293
 20
156.7596145241046
 30
0.0
 11
376.453180091296
 21
156.7596145241046
 31
0.0
 12
376.3448467579627
 22
157.4096145241047
 32
0.0
 13
376.3448467579627
 23
157.4096145241047
 33
0.0
  0
MTEXT
  5
D8
330
CF
100
AcDbEntity
  8
标注
100
AcDbMText
 10
376.3448467579627
 20
155.5846145241048
 30
0.0
 40
0.65
 41
0.0
 71
     5
 72
     1
  1
\A1;1"
 11
0.0000000000000001
 21
1.0
 31
0.0
 73
     1
 44
1.0
1001
ACAD
1000
MTEXTBEGIN
1070
    73
1070
     1
1070
    44
1040
1.0
1070
    74
1070
     0
1000
MTEXTEND
  0
POINT
  5
D9
330
CF
100
AcDbEntity
  8
Defpoints
 62
     0
100
AcDbPoint
 10
385.6930273661792
 20
158.4096145241025
 30
0.0
  0
POINT
  5
DA
330
CF
100
AcDbEntity
  8
Defpoints
 62
     0
100
AcDbPoint
 10
383.620271460664
 20
157.4096145241047
 30
0.0
  0
POINT
  5
DB
330
CF
100
AcDbEntity
  8
Defpoints
 62
     0
100
AcDbPoint
 10
376.3448467579627
 20
157.4096145241047
 30
0.0
  0
ENDBLK
  5
DC
330
CF
100
AcDbEntity
  8
0
100
AcDbBlockEnd
  0
BLOCK
  5
DE
330
DD
100
AcDbEntity
  8
0
100
AcDbBlockBegin
  2
*D15
 70
     1
 10
0.0
 20
0.0
 30
0.0
  3
*D15
  1

  0
LINE
  5
DF
330
DD
100
AcDbEntity
  8
标注
370
    -2
100
AcDbLine
 10
381.7777953057845
 20
189.4580033462699
 30
0.0
 11
381.2507943712823
 21
189.0775167958716
 31
0.0
  0
MTEXT
  5
E0
330
DD
100
AcDbEntity
  8
标注
100
AcDbMText
 10
382.5547838630632
 20
190.0189771064724
 30
0.0
 40
0.65
 41
0.0
 71
     5
 72
     1
  1
\A1;R2"
 11
0.810770668464719
 21
0.5853639236895905
 31
0.0
 73
     1
 44
1.0
1001
ACAD
1000
MTEXTBEGIN
1070
    73
1070
     1
1070
    44
1040
1.0
1070
    74
1070
     0
1000
MTEXTEND
  0
SOLID
  5
E1
330
DD
100
AcDbEntity
  8
标注
100
AcDbTrace
 10
381.187379946216
 20
189.1653502849553
 30
0.0
 11
381.3142087963488
 21
188.9896833067879
 31
0.0
 12
380.7237934367803
 22
188.6970302454734
 32
0.0
 13
380.7237934367803
 23
188.6970302454734
 33
0.0
  0
POINT
  5
E2
330
DD
100
AcDbEntity
  8
Defpoints
 62
     0
100
AcDbPoint
 10
380.7237934367803
 20
188.6970302454734
 30
0.0
  0
POINT
  5
E3
330
DD
100
AcDbEntity
  8
Defpoints
 62
     0
100
AcDbPoint
 10
382.3453347737098
 20
189.8677580928525
 30
0.0
  0
ENDBLK
  5
E4
330
DD
100
AcDbEntity
  8
0
100
AcDbBlockEnd
  0
BLOCK
  5
E6
330
E5
100
AcDbEntity
  8
0
100
AcDbBlockBegin
  2
*D16
 70
     1
 10
0.0
 20
0.0
 30
0.0
  3
*D16
  1

  0
LINE
  5
E7
330
E5
100
AcDbEntity
  8
标注
370
    -2
100
AcDbLine
 10
396.0372869859617
 20
187.9846386845254
 30
0.0
 11
395.5219025176843
 21
187.5885593365931
 31
0.0
  0
MTEXT
  5
E8
330
E5
100
AcDbEntity
  8
标注
100
AcDbMText
 10
396.7971487020117
 20
188.5686018257078
 30
0.0
 40
0.65
 41
0.0
 71
     5
 72
     1
  1
\A1;R2"
 11
0.7928991819651401
 21
0.6093528429727818
 31
0.0
 73
     1
 44
1.0
1001
ACAD
1000
MTEXTBEGIN
1070
    73
1070
     1
1070
    44
1040
1.0
1070
    74
1070
     0
1000
MTEXTEND
  0
SOLID
  5
E9
330
E5
100
AcDbEntity
  8
标注
100
AcDbTrace
 10
395.4558892930289
 20
187.6744567479726
 30
0.0
 11
395.5879157423396
 21
187.5026619252135
 31
0.0
 12
395.006518049407
 22
187.1924799886608
 32
0.0
 13
395.006518049407
 23
187.1924799886608
 33
0.0
  0
POINT
  5
EA
330
E5
100
AcDbEntity
  8
Defpoints
 62
     0
100
AcDbPoint
 10
395.006518049407
 20
187.1924799886608
 30
0.0
  0
POINT
  5
EB
330
E5
100
AcDbEntity
  8
Defpoints
 62
     0
100
AcDbPoint
 10
396.5923164133372
 20
188.4111856746064
 30
0.0
  0
ENDBLK
  5
EC
330
E5
100
AcDbEntity
  8
0
100
AcDbBlockEnd
  0
BLOCK
  5
2E8
330
2DC
100
AcDbEntity
  8
0
100
AcDbBlockBegin
  2
*D17
 70
     1
 10
0.0
 20
0.0
 30
0.0
  3
*D17
  1

  0
LINE
  5
323
330
2DC
100
AcDbEntity
  8
标注
370
    -2
100
AcDbLine
 10
145.6725645583578
 20
209.5128721613436
 30
0.0
 11
155.5686348027764
 21
209.5128721613436
 31
0.0
  0
LINE
  5
324
330
2DC
100
AcDbEntity
  8
标注
370
    -2
100
AcDbLine
 10
148.7295724324201
 20
210.5128721613435
 30
0.0
 11
155.5686348027764
 21
210.5128721613435
 31
0.0
  0
LINE
  5
325
330
2DC
100
AcDbEntity
  8
标注
370
    -2
100
AcDbLine
 10
155.2486348027764
 20
208.8628721613436
 30
0.0
 11
155.2486348027764
 21
208.2128721613436
 31
0.0
  0
LINE
  5
326
330
2DC
100
AcDbEntity
  8
标注
370
    -2
100
AcDbLine
 10
155.2486348027764
 20
211.1628721613436
 30
0.0
 11
155.2486348027764
 21
211.8128721613435
 31
0.0
  0
LINE
  5
327
330
2DC
100
AcDbEntity
  8
标注
370
    -2
100
AcDbLine
 10
155.2486348027764
 20
209.5128721613436
 30
0.0
 11
155.2486348027764
 21
210.5128721613435
 31
0.0
  0
SOLID
  5
328
330
2DC
100
AcDbEntity
  8
标注
100
AcDbTrace
 10
155.1403014694431
 20
208.8628721613436
 30
0.0
 11
155.3569681361097
 21
208.8628721613436
 31
0.0
 12
155.2486348027764
 22
209.5128721613436
 32
0.0
 13
155.2486348027764
 23
209.5128721613436
 33
0.0
  0
SOLID
  5
329
330
2DC
100
AcDbEntity
  8
标注
100
AcDbTrace
 10
155.1403014694431
 20
211.1628721613436
 30
0.0
 11
155.3569681361097
 21
211.1628721613436
 31
0.0
 12
155.2486348027764
 22
210.5128721613435
 32
0.0
 13
155.2486348027764
 23
210.5128721613435
 33
0.0
  0
MTEXT
  5
32A
330
2DC
100
AcDbEntity
  8
标注
100
AcDbMText
 10
155.2486348027764
 20
212.3378721613436
 30
0.0
 40
0.65
 41
0.0
 71
     5
 72
     1
  1
\A1;1"
 11
0.0000000000000001
 21
1.0
 31
0.0
 73
     1
 44
1.0
1001
ACAD
1000
MTEXTBEGIN
1070
    73
1070
     1
1070
    44
1040
1.0
1070
    74
1070
     0
1000
MTEXTEND
  0
POINT
  5
32B
330
2DC
100
AcDbEntity
  8
Defpoints
 62
     0
100
AcDbPoint
 10
144.7925645583578
 20
209.5128721613436
 30
0.0
  0
POINT
  5
32C
330
2DC
100
AcDbEntity
  8
Defpoints
 62
     0
100
AcDbPoint
 10
147.8495724324201
 20
210.5128721613435
 30
0.0
  0
POINT
  5
32D
330
2DC
100
AcDbEntity
  8
Defpoints
 62
     0
100
AcDbPoint
 10
155.2486348027764
 20
210.5128721613435
 30
0.0
  0
ENDBLK
  5
2E9
330
2DC
100
AcDbEntity
  8
0
100
AcDbBlockEnd
  0
BLOCK
  5
2F6
330
2EA
100
AcDbEntity
  8
0
100
AcDbBlockBegin
  2
*D18
 70
     1
 10
0.0
 20
0.0
 30
0.0
  3
*D18
  1

  0
LINE
  5
33C
330
2EA
100
AcDbEntity
  8
标注
370
    -2
100
AcDbLine
 10
151.786580306436
 20
199.2627934211861
 30
0.0
 11
151.786580306436
 21
187.0985893225397
 31
0.0
  0
LINE
  5
33D
330
2EA
100
AcDbEntity
  8
标注
370
    -2
100
AcDbLine
 10
152.7865803064359
 20
193.8297225550414
 30
0.0
 11
152.7865803064359
 21
187.0985893225397
 31
0.0
  0
LINE
  5
33E
330
2EA
100
AcDbEntity
  8
标注
370
    -2
100
AcDbLine
 10
151.136580306436
 20
187.4185893225396
 30
0.0
 11
150.486580306436
 21
187.4185893225396
 31
0.0
  0
LINE
  5
33F
330
2EA
100
AcDbEntity
  8
标注
370
    -2
100
AcDbLine
 10
153.4365803064359
 20
187.4185893225396
 30
0.0
 11
154.0865803064358
 21
187.4185893225396
 31
0.0
  0
LINE
  5
340
330
2EA
100
AcDbEntity
  8
标注
370
    -2
100
AcDbLine
 10
151.786580306436
 20
187.4185893225396
 30
0.0
 11
152.7865803064359
 21
187.4185893225396
 31
0.0
  0
SOLID
  5
341
330
2EA
100
AcDbEntity
  8
标注
100
AcDbTrace
 10
151.136580306436
 20
187.5269226558731
 30
0.0
 11
151.136580306436
 21
187.3102559892064
 31
0.0
 12
151.786580306436
 22
187.4185893225396
 32
0.0
 13
151.786580306436
 23
187.4185893225396
 33
0.0
  0
SOLID
  5
342
330
2EA
100
AcDbEntity
  8
标注
100
AcDbTrace
 10
153.4365803064359
 20
187.5269226558731
 30
0.0
 11
153.4365803064359
 21
187.3102559892064
 31
0.0
 12
152.7865803064359
 22
187.4185893225396
 32
0.0
 13
152.7865803064359
 23
187.4185893225396
 33
0.0
  0
MTEXT
  5
343
330
2EA
100
AcDbEntity
  8
标注
100
AcDbMText
 10
154.6115803064359
 20
187.4185893225396
 30
0.0
 40
0.65
 41
0.0
 71
     5
 72
     1
  1
\A1;1"
 73
     1
 44
1.0
1001
ACAD
1000
MTEXTBEGIN
1070
    73
1070
     1
1070
    44
1040
1.0
1070
    74
1070
     0
1000
MTEXTEND
  0
POINT
  5
344
330
2EA
100
AcDbEntity
  8
Defpoints
 62
     0
100
AcDbPoint
 10
151.786580306436
 20
200.1427934211862
 30
0.0
  0
POINT
  5
345
330
2EA
100
AcDbEntity
  8
Defpoints
 62
     0
100
AcDbPoint
 10
152.7865803064359
 20
194.7097225550414
 30
0.0
  0
POINT
  5
346
330
2EA
100
AcDbEntity
  8
Defpoints
 62
     0
100
AcDbPoint
 10
152.7865803064359
 20
187.4185893225396
 30
0.0
  0
ENDBLK
  5
2F7
330
2EA
100
AcDbEntity
  8
0
100
AcDbBlockEnd
  0
BLOCK
  5
303
330
2F8
100
AcDbEntity
  8
0
100
AcDbBlockBegin
  2
*D19
 70
     1
 10
0.0
 20
0.0
 30
0.0
  3
*D19
  1

  0
LINE
  5
398
330
2F8
100
AcDbEntity
  8
标注
370
    -2
100
AcDbLine
 10
148.7295724324201
 20
210.5128721613435
 30
0.0
 11
158.0065956389688
 21
210.5128721613435
 31
0.0
  0
LINE
  5
399
330
2F8
100
AcDbEntity
  8
标注
370
    -2
100
AcDbLine
 10
148.7295724324201
 20
189.7727146810258
 30
0.0
 11
158.0065956389688
 21
189.7727146810258
 31
0.0
  0
LINE
  5
39A
330
2F8
100
AcDbEntity
  8
标注
370
    -2
100
AcDbLine
 10
157.6865956389688
 20
209.8628721613435
 30
0.0
 11
157.6865956389688
 21
202.3469600878513
 31
0.0
  0
LINE
  5
39B
330
2F8
100
AcDbEntity
  8
标注
370
    -2
100
AcDbLine
 10
157.6865956389688
 20
190.4227146810258
 30
0.0
 11
157.6865956389688
 21
197.9386267545179
 31
0.0
  0
SOLID
  5
39C
330
2F8
100
AcDbEntity
  8
标注
100
AcDbTrace
 10
157.5782623056355
 20
209.8628721613435
 30
0.0
 11
157.7949289723022
 21
209.8628721613435
 31
0.0
 12
157.6865956389688
 22
210.5128721613435
 32
0.0
 13
157.6865956389688
 23
210.5128721613435
 33
0.0
  0
SOLID
  5
39D
330
2F8
100
AcDbEntity
  8
标注
100
AcDbTrace
 10
157.5782623056355
 20
190.4227146810258
 30
0.0
 11
157.7949289723021
 21
190.4227146810258
 31
0.0
 12
157.6865956389688
 22
189.7727146810258
 32
0.0
 13
157.6865956389688
 23
189.7727146810258
 33
0.0
  0
MTEXT
  5
39E
330
2F8
100
AcDbEntity
  8
标注
100
AcDbMText
 10
157.6865956389688
 20
200.1427934211847
 30
0.0
 40
0.65
 41
0.0
 71
     5
 72
     1
  1
\A1;20 3/4"
 11
0.0000000000000001
 21
1.0
 31
0.0
 73
     1
 44
1.0
1001
ACAD
1000
MTEXTBEGIN
1070
    73
1070
     1
1070
    44
1040
1.0
1070
    74
1070
     0
1000
MTEXTEND
  0
POINT
  5
39F
330
2F8
100
AcDbEntity
  8
Defpoints
 62
     0
100
AcDbPoint
 10
147.8495724324201
 20
210.5128721613435
 30
0.0
  0
POINT
  5
3A0
330
2F8
100
AcDbEntity
  8
Defpoints
 62
     0
100
AcDbPoint
 10
147.8495724324201
 20
189.7727146810258
 30
0.0
  0
POINT
  5
3A1
330
2F8
100
AcDbEntity
  8
Defpoints
 62
     0
100
AcDbPoint
 10
157.6865956389688
 20
189.7727146810258
 30
0.0
  0
ENDBLK
  5
304
330
2F8
100
AcDbEntity
  8
0
100
AcDbBlockEnd
  0
BLOCK
  5
30B
330
305
100
AcDbEntity
  8
0
100
AcDbBlockBegin
  2
*D20
 70
     1
 10
0.0
 20
0.0
 30
0.0
  3
*D20
  1

  0
LINE
  5
3BC
330
305
100
AcDbEntity
  8
标注
370
    -2
100
AcDbLine
 10
137.7390289025965
 20
220.3477388414632
 30
0.0
 11
137.2236444343192
 21
219.9516594935309
 31
0.0
  0
MTEXT
  5
3BD
330
305
100
AcDbEntity
  8
标注
100
AcDbMText
 10
138.4988906186465
 20
220.9317019826455
 30
0.0
 40
0.65
 41
0.0
 71
     5
 72
     1
  1
\A1;R2"
 11
0.7928991819651361
 21
0.6093528429727874
 31
0.0
 73
     1
 44
1.0
1001
ACAD
1000
MTEXTBEGIN
1070
    73
1070
     1
1070
    44
1040
1.0
1070
    74
1070
     0
1000
MTEXTEND
  0
SOLID
  5
3BE
330
305
100
AcDbEntity
  8
标注
100
AcDbTrace
 10
137.1576312096638
 20
220.0375569049104
 30
0.0
 11
137.2896576589746
 21
219.8657620821513
 31
0.0
 12
136.7082599660419
 22
219.5555801455986
 32
0.0
 13
136.7082599660419
 23
219.5555801455986
 33
0.0
  0
POINT
  5
3BF
330
305
100
AcDbEntity
  8
Defpoints
 62
     0
100
AcDbPoint
 10
136.7082599660419
 20
219.5555801455986
 30
0.0
  0
POINT
  5
3C0
330
305
100
AcDbEntity
  8
Defpoints
 62
     0
100
AcDbPoint
 10
138.2940583299721
 20
220.7742858315441
 30
0.0
  0
ENDBLK
  5
30C
330
305
100
AcDbEntity
  8
0
100
AcDbBlockEnd
  0
BLOCK
  5
313
330
30D
100
AcDbEntity
  8
0
100
AcDbBlockBegin
  2
*D21
 70
     1
 10
0.0
 20
0.0
 30
0.0
  3
*D21
  1

  0
LINE
  5
3C1
330
30D
100
AcDbEntity
  8
标注
370
    -2
100
AcDbLine
 10
123.4795372224193
 20
221.8211035032077
 30
0.0
 11
122.9525362879172
 21
221.4406169528095
 31
0.0
  0
MTEXT
  5
3C2
330
30D
100
AcDbEntity
  8
标注
100
AcDbMText
 10
124.256525779698
 20
222.3820772634102
 30
0.0
 40
0.65
 41
0.0
 71
     5
 72
     1
  1
\A1;R2"
 11
0.810770668464719
 21
0.5853639236895905
 31
0.0
 73
     1
 44
1.0
1001
ACAD
1000
MTEXTBEGIN
1070
    73
1070
     1
1070
    44
1040
1.0
1070
    74
1070
     0
1000
MTEXTEND
  0
SOLID
  5
3C3
330
30D
100
AcDbEntity
  8
标注
100
AcDbTrace
 10
122.8891218628509
 20
221.5284504418931
 30
0.0
 11
123.0159507129836
 21
221.3527834637258
 31
0.0
 12
122.4255353534152
 22
221.0601304024113
 32
0.0
 13
122.4255353534152
 23
221.0601304024113
 33
0.0
  0
POINT
  5
3C4
330
30D
100
AcDbEntity
  8
Defpoints
 62
     0
100
AcDbPoint
 10
122.4255353534152
 20
221.0601304024113
 30
0.0
  0
POINT
  5
3C5
330
30D
100
AcDbEntity
  8
Defpoints
 62
     0
100
AcDbPoint
 10
124.0470766903445
 20
222.2308582497904
 30
0.0
  0
ENDBLK
  5
314
330
30D
100
AcDbEntity
  8
0
100
AcDbBlockEnd
  0
BLOCK
  5
321
330
315
100
AcDbEntity
  8
0
100
AcDbBlockBegin
  2
*D22
 70
     1
 10
0.0
 20
0.0
 30
0.0
  3
*D22
  1

  0
LINE
  5
316
330
315
100
AcDbEntity
  8
标注
370
    -2
100
AcDbLine
 10
126.5147692828139
 20
190.77271468104
 30
0.0
 11
117.7265886745974
 21
190.77271468104
 31
0.0
  0
LINE
  5
317
330
315
100
AcDbEntity
  8
标注
370
    -2
100
AcDbLine
 10
124.4420133772987
 20
189.7727146810424
 30
0.0
 11
117.7265886745974
 21
189.7727146810424
 31
0.0
  0
LINE
  5
318
330
315
100
AcDbEntity
  8
标注
370
    -2
100
AcDbLine
 10
118.0465886745974
 20
191.4227146810402
 30
0.0
 11
118.0465886745974
 21
192.0727146810402
 31
0.0
  0
LINE
  5
319
330
315
100
AcDbEntity
  8
标注
370
    -2
100
AcDbLine
 10
118.0465886745974
 20
189.1227146810424
 30
0.0
 11
118.0465886745974
 21
188.4727146810424
 31
0.0
  0
LINE
  5
31A
330
315
100
AcDbEntity
  8
标注
370
    -2
100
AcDbLine
 10
118.0465886745974
 20
190.77271468104
 30
0.0
 11
118.0465886745974
 21
189.7727146810424
 31
0.0
  0
SOLID
  5
31B
330
315
100
AcDbEntity
  8
标注
100
AcDbTrace
 10
117.9382553412641
 20
191.4227146810402
 30
0.0
 11
118.1549220079308
 21
191.4227146810402
 31
0.0
 12
118.0465886745974
 22
190.77271468104
 32
0.0
 13
118.0465886745974
 23
190.77271468104
 33
0.0
  0
SOLID
  5
31C
330
315
100
AcDbEntity
  8
标注
100
AcDbTrace
 10
117.9382553412641
 20
189.1227146810424
 30
0.0
 11
118.1549220079308
 21
189.1227146810424
 31
0.0
 12
118.0465886745974
 22
189.7727146810424
 32
0.0
 13
118.0465886745974
 23
189.7727146810424
 33
0.0
  0
MTEXT
  5
31D
330
315
100
AcDbEntity
  8
标注
100
AcDbMText
 10
118.0465886745974
 20
187.9477146810424
 30
0.0
 40
0.65
 41
0.0
 71
     5
 72
     1
  1
\A1;1"
 11
0.0000000000000001
 21
1.0
 31
0.0
 73
     1
 44
1.0
1001
ACAD
1000
MTEXTBEGIN
1070
    73
1070
     1
1070
    44
1040
1.0
1070
    74
1070
     0
1000
MTEXTEND
  0
POINT
  5
31E
330
315
100
AcDbEntity
  8
Defpoints
 62
     0
100
AcDbPoint
 10
127.3947692828139
 20
190.77271468104
 30
0.0
  0
POINT
  5
31F
330
315
100
AcDbEntity
  8
Defpoints
 62
     0
100
AcDbPoint
 10
125.3220133772987
 20
189.7727146810424
 30
0.0
  0
POINT
  5
320
330
315
100
AcDbEntity
  8
Defpoints
 62
     0
100
AcDbPoint
 10
118.0465886745974
 20
189.7727146810424
 30
0.0
  0
ENDBLK
  5
322
330
315
100
AcDbEntity
  8
0
100
AcDbBlockEnd
  0
BLOCK
  5
33A
330
32E
100
AcDbEntity
  8
0
100
AcDbBlockBegin
  2
*D23
 70
     1
 10
0.0
 20
0.0
 30
0.0
  3
*D23
  1

  0
LINE
  5
32F
330
32E
100
AcDbEntity
  8
标注
370
    -2
100
AcDbLine
 10
134.77083227494
 20
199.9204312164741
 30
0.0
 11
134.77083227494
 21
199.5827934211861
 31
0.0
  0
LINE
  5
330
330
32E
100
AcDbEntity
  8
标注
370
    -2
100
AcDbLine
 10
136.038548810373
 20
199.9204312164741
 30
0.0
 11
136.038548810373
 21
199.5827934211861
 31
0.0
  0
LINE
  5
331
330
32E
100
AcDbEntity
  8
标注
370
    -2
100
AcDbLine
 10
134.12083227494
 20
199.2627934211861
 30
0.0
 11
133.47083227494
 21
199.2627934211861
 31
0.0
  0
LINE
  5
332
330
32E
100
AcDbEntity
  8
标注
370
    -2
100
AcDbLine
 10
136.6885488103731
 20
199.2627934211861
 30
0.0
 11
137.3385488103731
 21
199.2627934211861
 31
0.0
  0
LINE
  5
333
330
32E
100
AcDbEntity
  8
标注
370
    -2
100
AcDbLine
 10
134.77083227494
 20
199.2627934211861
 30
0.0
 11
136.038548810373
 21
199.2627934211861
 31
0.0
  0
SOLID
  5
334
330
32E
100
AcDbEntity
  8
标注
100
AcDbTrace
 10
134.12083227494
 20
199.3711267545195
 30
0.0
 11
134.12083227494
 21
199.1544600878528
 31
0.0
 12
134.77083227494
 22
199.2627934211861
 32
0.0
 13
134.77083227494
 23
199.2627934211861
 33
0.0
  0
SOLID
  5
335
330
32E
100
AcDbEntity
  8
标注
100
AcDbTrace
 10
136.6885488103731
 20
199.3711267545195
 30
0.0
 11
136.6885488103731
 21
199.1544600878528
 31
0.0
 12
136.038548810373
 22
199.2627934211861
 32
0.0
 13
136.038548810373
 23
199.2627934211861
 33
0.0
  0
MTEXT
  5
336
330
32E
100
AcDbEntity
  8
标注
100
AcDbMText
 10
139.0552154770397
 20
199.2627934211861
 30
0.0
 40
0.65
 41
0.0
 71
     5
 72
     1
  1
\A1;1 1/4"
 73
     1
 44
1.0
1001
ACAD
1000
MTEXTBEGIN
1070
    73
1070
     1
1070
    44
1040
1.0
1070
    74
1070
     0
1000
MTEXTEND
  0
POINT
  5
337
330
32E
100
AcDbEntity
  8
Defpoints
 62
     0
100
AcDbPoint
 10
134.77083227494
 20
199.0404312164742
 30
0.0
  0
POINT
  5
338
330
32E
100
AcDbEntity
  8
Defpoints
 62
     0
100
AcDbPoint
 10
136.038548810373
 20
199.0404312164742
 30
0.0
  0
POINT
  5
339
330
32E
100
AcDbEntity
  8
Defpoints
 62
     0
100
AcDbPoint
 10
136.038548810373
 20
199.2627934211861
 30
0.0
  0
ENDBLK
  5
33B
330
32E
100
AcDbEntity
  8
0
100
AcDbBlockEnd
  0
BLOCK
  5
34D
330
347
100
AcDbEntity
  8
0
100
AcDbBlockBegin
  2
*D24
 70
     1
 10
0.0
 20
0.0
 30
0.0
  3
*D24
  1

  0
LINE
  5
3C6
330
347
100
AcDbEntity
  8
标注
370
    -2
100
AcDbLine
 10
123.8238032388251
 20
193.0095116021601
 30
0.0
 11
123.3254553274277
 21
192.5921995376257
 31
0.0
  0
MTEXT
  5
3C7
330
347
100
AcDbEntity
  8
标注
100
AcDbMText
 10
125.4721847919087
 20
194.3898515079274
 30
0.0
 40
0.65
 41
0.0
 71
     5
 72
     1
  1
\A1;R3 1/2"
 11
0.7666890944574901
 21
0.6420185608220015
 31
0.0
 73
     1
 44
1.0
1001
ACAD
1000
MTEXTBEGIN
1070
    73
1070
     1
1070
    44
1040
1.0
1070
    74
1070
     0
1000
MTEXTEND
  0
SOLID
  5
3C8
330
347
100
AcDbEntity
  8
标注
100
AcDbTrace
 10
123.2559033166719
 20
192.6752575228585
 30
0.0
 11
123.3950073381834
 21
192.5091415523928
 31
0.0
 12
122.8271074160303
 22
192.1748874730915
 32
0.0
 13
122.8271074160303
 23
192.1748874730915
 33
0.0
  0
POINT
  5
3C9
330
347
100
AcDbEntity
  8
Defpoints
 62
     0
100
AcDbPoint
 10
122.8271074160303
 20
192.1748874730915
 30
0.0
  0
POINT
  5
3CA
330
347
100
AcDbEntity
  8
Defpoints
 62
     0
100
AcDbPoint
 10
125.5437223176513
 20
194.4497563893898
 30
0.0
  0
ENDBLK
  5
34E
330
347
100
AcDbEntity
  8
0
100
AcDbBlockEnd
  0
BLOCK
  5
355
330
34F
100
AcDbEntity
  8
0
100
AcDbBlockBegin
  2
*D25
 70
     1
 10
0.0
 20
0.0
 30
0.0
  3
*D25
  1

  0
LINE
  5
3CB
330
34F
100
AcDbEntity
  8
标注
370
    -2
100
AcDbLine
 10
138.1649362874002
 20
193.1615283372769
 30
0.0
 11
137.6671049754661
 21
192.7436001318898
 31
0.0
  0
MTEXT
  5
3CC
330
34F
100
AcDbEntity
  8
标注
100
AcDbMText
 10
139.894580973735
 20
194.6135609483011
 30
0.0
 40
0.65
 41
0.0
 71
     5
 72
     1
  1
\A1;R3 7/8"
 11
0.7658943260523344
 21
0.6429664698262584
 31
0.0
 73
     1
 44
1.0
1001
ACAD
1000
MTEXTBEGIN
1070
    73
1070
     1
1070
    44
1040
1.0
1070
    74
1070
     0
1000
MTEXTEND
  0
SOLID
  5
3CD
330
34F
100
AcDbEntity
  8
标注
100
AcDbTrace
 10
137.5974502745683
 20
192.8265720172121
 30
0.0
 11
137.736759676364
 21
192.6606282465675
 31
0.0
 12
137.1692736635321
 22
192.3256719265026
 32
0.0
 13
137.1692736635321
 23
192.3256719265026
 33
0.0
  0
POINT
  5
3CE
330
34F
100
AcDbEntity
  8
Defpoints
 62
     0
100
AcDbPoint
 10
137.1692736635321
 20
192.3256719265026
 30
0.0
  0
POINT
  5
3CF
330
34F
100
AcDbEntity
  8
Defpoints
 62
     0
100
AcDbPoint
 10
140.1846056558642
 20
194.8570359809368
 30
0.0
  0
ENDBLK
  5
356
330
34F
100
AcDbEntity
  8
0
100
AcDbBlockEnd
  0
BLOCK
  5
362
330
357
100
AcDbEntity
  8
0
100
AcDbBlockBegin
  2
*D26
 70
     1
 10
0.0
 20
0.0
 30
0.0
  3
*D26
  1

  0
LINE
  5
358
330
357
100
AcDbEntity
  8
标注
370
    -2
100
AcDbLine
 10
152.7865803064359
 20
193.8297225550414
 30
0.0
 11
152.7865803064359
 21
184.8511816833886
 31
0.0
  0
LINE
  5
359
330
357
100
AcDbEntity
  8
标注
370
    -2
100
AcDbLine
 10
120.778706290688
 20
193.4360217676566
 30
0.0
 11
120.778706290688
 21
184.8511816833886
 31
0.0
  0
LINE
  5
35A
330
357
100
AcDbEntity
  8
标注
370
    -2
100
AcDbLine
 10
152.1365803064359
 20
185.1711816833886
 30
0.0
 11
137.7409766318952
 21
185.1711816833886
 31
0.0
  0
LINE
  5
35B
330
357
100
AcDbEntity
  8
标注
370
    -2
100
AcDbLine
 10
121.428706290688
 20
185.1711816833886
 30
0.0
 11
135.8243099652285
 21
185.1711816833886
 31
0.0
  0
SOLID
  5
35C
330
357
100
AcDbEntity
  8
标注
100
AcDbTrace
 10
152.1365803064359
 20
185.2795150167219
 30
0.0
 11
152.1365803064359
 21
185.0628483500553
 31
0.0
 12
152.7865803064359
 22
185.1711816833886
 32
0.0
 13
152.7865803064359
 23
185.1711816833886
 33
0.0
  0
SOLID
  5
35D
330
357
100
AcDbEntity
  8
标注
100
AcDbTrace
 10
121.428706290688
 20
185.2795150167219
 30
0.0
 11
121.428706290688
 21
185.0628483500553
 31
0.0
 12
120.778706290688
 22
185.1711816833886
 32
0.0
 13
120.778706290688
 23
185.1711816833886
 33
0.0
  0
MTEXT
  5
35E
330
357
100
AcDbEntity
  8
标注
100
AcDbMText
 10
136.7826432985619
 20
185.1711816833886
 30
0.0
 40
0.65
 41
0.0
 71
     5
 72
     1
  1
\A1;32"
 73
     1
 44
1.0
1001
ACAD
1000
MTEXTBEGIN
1070
    73
1070
     1
1070
    44
1040
1.0
1070
    74
1070
     0
1000
MTEXTEND
  0
POINT
  5
35F
330
357
100
AcDbEntity
  8
Defpoints
 62
     0
100
AcDbPoint
 10
152.7865803064359
 20
194.7097225550414
 30
0.0
  0
POINT
  5
360
330
357
100
AcDbEntity
  8
Defpoints
 62
     0
100
AcDbPoint
 10
120.778706290688
 20
194.3160217676565
 30
0.0
  0
POINT
  5
361
330
357
100
AcDbEntity
  8
Defpoints
 62
     0
100
AcDbPoint
 10
120.778706290688
 20
185.1711816833886
 30
0.0
  0
ENDBLK
  5
363
330
357
100
AcDbEntity
  8
0
100
AcDbBlockEnd
  0
BLOCK
  5
36F
330
364
100
AcDbEntity
  8
0
100
AcDbBlockBegin
  2
*D27
 70
     1
 10
0.0
 20
0.0
 30
0.0
  3
*D27
  1

  0
LINE
  5
365
330
364
100
AcDbEntity
  8
标注
370
    -2
100
AcDbLine
 10
134.7708322749399
 20
198.1604312164743
 30
0.0
 11
134.7708322749399
 21
187.0945799508248
 31
0.0
  0
LINE
  5
366
330
364
100
AcDbEntity
  8
标注
370
    -2
100
AcDbLine
 10
121.778706290688
 20
198.1604312164732
 30
0.0
 11
121.778706290688
 21
187.0945799508248
 31
0.0
  0
LINE
  5
367
330
364
100
AcDbEntity
  8
标注
370
    -2
100
AcDbLine
 10
134.1208322749399
 20
187.4145799508248
 30
0.0
 11
129.1247692828139
 21
187.4145799508248
 31
0.0
  0
LINE
  5
368
330
364
100
AcDbEntity
  8
标注
370
    -2
100
AcDbLine
 10
122.428706290688
 20
187.4145799508248
 30
0.0
 11
127.4247692828139
 21
187.4145799508248
 31
0.0
  0
SOLID
  5
369
330
364
100
AcDbEntity
  8
标注
100
AcDbTrace
 10
134.1208322749399
 20
187.5229132841582
 30
0.0
 11
134.1208322749399
 21
187.3062466174915
 31
0.0
 12
134.7708322749399
 22
187.4145799508248
 32
0.0
 13
134.7708322749399
 23
187.4145799508248
 33
0.0
  0
SOLID
  5
36A
330
364
100
AcDbEntity
  8
标注
100
AcDbTrace
 10
122.428706290688
 20
187.5229132841582
 30
0.0
 11
122.428706290688
 21
187.3062466174915
 31
0.0
 12
121.778706290688
 22
187.4145799508248
 32
0.0
 13
121.778706290688
 23
187.4145799508248
 33
0.0
  0
MTEXT
  5
36B
330
364
100
AcDbEntity
  8
标注
100
AcDbMText
 10
128.2747692828139
 20
187.4145799508248
 30
0.0
 40
0.65
 41
0.0
 71
     5
 72
     1
  1
\A1;13"
 73
     1
 44
1.0
1001
ACAD
1000
MTEXTBEGIN
1070
    73
1070
     1
1070
    44
1040
1.0
1070
    74
1070
     0
1000
MTEXTEND
  0
POINT
  5
36C
330
364
100
AcDbEntity
  8
Defpoints
 62
     0
100
AcDbPoint
 10
134.7708322749399
 20
199.0404312164742
 30
0.0
  0
POINT
  5
36D
330
364
100
AcDbEntity
  8
Defpoints
 62
     0
100
AcDbPoint
 10
121.778706290688
 20
199.0404312164732
 30
0.0
  0
POINT
  5
36E
330
364
100
AcDbEntity
  8
Defpoints
 62
     0
100
AcDbPoint
 10
121.778706290688
 20
187.4145799508248
 30
0.0
  0
ENDBLK
  5
370
330
364
100
AcDbEntity
  8
0
100
AcDbBlockEnd
  0
BLOCK
  5
37C
330
371
100
AcDbEntity
  8
0
100
AcDbBlockBegin
  2
*D28
 70
     1
 10
0.0
 20
0.0
 30
0.0
  3
*D28
  1

  0
LINE
  5
3D0
330
371
100
AcDbEntity
  8
标注
370
    -2
100
AcDbLine
 10
151.786580306436
 20
199.2627934211861
 30
0.0
 11
151.786580306436
 21
187.0985893225397
 31
0.0
  0
LINE
  5
3D1
330
371
100
AcDbEntity
  8
标注
370
    -2
100
AcDbLine
 10
136.038548810373
 20
199.2627934211861
 30
0.0
 11
136.038548810373
 21
187.0985893225397
 31
0.0
  0
LINE
  5
3D2
330
371
100
AcDbEntity
  8
标注
370
    -2
100
AcDbLine
 10
151.1365803064359
 20
187.4185893225396
 30
0.0
 11
146.0625645584045
 21
187.4185893225396
 31
0.0
  0
LINE
  5
3D3
330
371
100
AcDbEntity
  8
标注
370
    -2
100
AcDbLine
 10
136.688548810373
 20
187.4185893225396
 30
0.0
 11
141.7625645584045
 21
187.4185893225396
 31
0.0
  0
SOLID
  5
3D4
330
371
100
AcDbEntity
  8
标注
100
AcDbTrace
 10
151.1365803064359
 20
187.5269226558731
 30
0.0
 11
151.1365803064359
 21
187.3102559892064
 31
0.0
 12
151.786580306436
 22
187.4185893225396
 32
0.0
 13
151.786580306436
 23
187.4185893225396
 33
0.0
  0
SOLID
  5
3D5
330
371
100
AcDbEntity
  8
标注
100
AcDbTrace
 10
136.688548810373
 20
187.5269226558731
 30
0.0
 11
136.688548810373
 21
187.3102559892064
 31
0.0
 12
136.038548810373
 22
187.4185893225396
 32
0.0
 13
136.038548810373
 23
187.4185893225396
 33
0.0
  0
MTEXT
  5
3D6
330
371
100
AcDbEntity
  8
标注
100
AcDbMText
 10
143.9125645584045
 20
187.4185893225396
 30
0.0
 40
0.65
 41
0.0
 71
     5
 72
     1
  1
\A1;15 3/4"
 73
     1
 44
1.0
1001
ACAD
1000
MTEXTBEGIN
1070
    73
1070
     1
1070
    44
1040
1.0
1070
    74
1070
     0
1000
MTEXTEND
  0
POINT
  5
3D7
330
371
100
AcDbEntity
  8
Defpoints
 62
     0
100
AcDbPoint
 10
151.786580306436
 20
200.1427934211862
 30
0.0
  0
POINT
  5
3D8
330
371
100
AcDbEntity
  8
Defpoints
 62
     0
100
AcDbPoint
 10
136.038548810373
 20
200.1427934211862
 30
0.0
  0
POINT
  5
3D9
330
371
100
AcDbEntity
  8
Defpoints
 62
     0
100
AcDbPoint
 10
136.038548810373
 20
187.4185893225396
 30
0.0
  0
ENDBLK
  5
37D
330
371
100
AcDbEntity
  8
0
100
AcDbBlockEnd
  0
BLOCK
  5
389
330
37E
100
AcDbEntity
  8
0
100
AcDbBlockBegin
  2
*D29
 70
     1
 10
0.0
 20
0.0
 30
0.0
  3
*D29
  1

  0
LINE
  5
37F
330
37E
100
AcDbEntity
  8
标注
370
    -2
100
AcDbLine
 10
124.4420133773021
 20
208.3081477519064
 30
0.0
 11
115.385427759201
 21
208.3081477519064
 31
0.0
  0
LINE
  5
380
330
37E
100
AcDbEntity
  8
标注
370
    -2
100
AcDbLine
 10
124.4420133773021
 20
189.7727146810424
 30
0.0
 11
115.385427759201
 21
189.7727146810424
 31
0.0
  0
LINE
  5
381
330
37E
100
AcDbEntity
  8
标注
370
    -2
100
AcDbLine
 10
115.705427759201
 20
207.6581477519064
 30
0.0
 11
115.705427759201
 21
201.082097883141
 31
0.0
  0
LINE
  5
382
330
37E
100
AcDbEntity
  8
标注
370
    -2
100
AcDbLine
 10
115.705427759201
 20
190.4227146810424
 30
0.0
 11
115.705427759201
 21
196.9987645498077
 31
0.0
  0
SOLID
  5
383
330
37E
100
AcDbEntity
  8
标注
100
AcDbTrace
 10
115.5970944258677
 20
207.6581477519064
 30
0.0
 11
115.8137610925344
 21
207.6581477519064
 31
0.0
 12
115.705427759201
 22
208.3081477519064
 32
0.0
 13
115.705427759201
 23
208.3081477519064
 33
0.0
  0
SOLID
  5
384
330
37E
100
AcDbEntity
  8
标注
100
AcDbTrace
 10
115.5970944258677
 20
190.4227146810424
 30
0.0
 11
115.8137610925344
 21
190.4227146810424
 31
0.0
 12
115.705427759201
 22
189.7727146810424
 32
0.0
 13
115.705427759201
 23
189.7727146810424
 33
0.0
  0
MTEXT
  5
385
330
37E
100
AcDbEntity
  8
标注
100
AcDbMText
 10
115.705427759201
 20
199.0404312164744
 30
0.0
 40
0.65
 41
0.0
 71
     5
 72
     1
  1
\A1;18 1/2"
 11
0.0000000000000001
 21
1.0
 31
0.0
 73
     1
 44
1.0
1001
ACAD
1000
MTEXTBEGIN
1070
    73
1070
     1
1070
    44
1040
1.0
1070
    74
1070
     0
1000
MTEXTEND
  0
POINT
  5
386
330
37E
100
AcDbEntity
  8
Defpoints
 62
     0
100
AcDbPoint
 10
125.3220133773021
 20
208.3081477519064
 30
0.0
  0
POINT
  5
387
330
37E
100
AcDbEntity
  8
Defpoints
 62
     0
100
AcDbPoint
 10
125.3220133773021
 20
189.7727146810424
 30
0.0
  0
POINT
  5
388
330
37E
100
AcDbEntity
  8
Defpoints
 62
     0
100
AcDbPoint
 10
115.705427759201
 20
189.7727146810424
 30
0.0
  0
ENDBLK
  5
38A
330
37E
100
AcDbEntity
  8
0
100
AcDbBlockEnd
  0
BLOCK
  5
396
330
38B
100
AcDbEntity
  8
0
100
AcDbBlockBegin
  2
*D30
 70
     1
 10
0.0
 20
0.0
 30
0.0
  3
*D30
  1

  0
LINE
  5
38C
330
38B
100
AcDbEntity
  8
标注
370
    -2
100
AcDbLine
 10
127.3947692828139
 20
207.3081477519063
 30
0.0
 11
117.7265886745974
 21
207.3081477519063
 31
0.0
  0
LINE
  5
38D
330
38B
100
AcDbEntity
  8
标注
370
    -2
100
AcDbLine
 10
127.394769282814
 20
190.77271468104
 30
0.0
 11
117.7265886745974
 21
190.77271468104
 31
0.0
  0
LINE
  5
38E
330
38B
100
AcDbEntity
  8
标注
370
    -2
100
AcDbLine
 10
118.0465886745974
 20
206.6581477519063
 30
0.0
 11
118.0465886745974
 21
201.0820978831398
 31
0.0
  0
LINE
  5
38F
330
38B
100
AcDbEntity
  8
标注
370
    -2
100
AcDbLine
 10
118.0465886745974
 20
191.4227146810402
 30
0.0
 11
118.0465886745974
 21
196.9987645498065
 31
0.0
  0
SOLID
  5
390
330
38B
100
AcDbEntity
  8
标注
100
AcDbTrace
 10
117.938255341264
 20
206.6581477519063
 30
0.0
 11
118.1549220079307
 21
206.6581477519063
 31
0.0
 12
118.0465886745974
 22
207.3081477519063
 32
0.0
 13
118.0465886745974
 23
207.3081477519063
 33
0.0
  0
SOLID
  5
391
330
38B
100
AcDbEntity
  8
标注
100
AcDbTrace
 10
117.938255341264
 20
191.4227146810402
 30
0.0
 11
118.1549220079307
 21
191.4227146810402
 31
0.0
 12
118.0465886745974
 22
190.77271468104
 32
0.0
 13
118.0465886745974
 23
190.77271468104
 33
0.0
  0
MTEXT
  5
392
330
38B
100
AcDbEntity
  8
标注
100
AcDbMText
 10
118.0465886745974
 20
199.0404312164732
 30
0.0
 40
0.65
 41
0.0
 71
     5
 72
     1
  1
\A1;16 1/2"
 11
0.0000000000000001
 21
1.0
 31
0.0
 73
     1
 44
1.0
1001
ACAD
1000
MTEXTBEGIN
1070
    73
1070
     1
1070
    44
1040
1.0
1070
    74
1070
     0
1000
MTEXTEND
  0
POINT
  5
393
330
38B
100
AcDbEntity
  8
Defpoints
 62
     0
100
AcDbPoint
 10
128.2747692828139
 20
207.3081477519063
 30
0.0
  0
POINT
  5
394
330
38B
100
AcDbEntity
  8
Defpoints
 62
     0
100
AcDbPoint
 10
128.2747692828139
 20
190.77271468104
 30
0.0
  0
POINT
  5
395
330
38B
100
AcDbEntity
  8
Defpoints
 62
     0
100
AcDbPoint
 10
118.0465886745974
 20
190.77271468104
 30
0.0
  0
ENDBLK
  5
397
330
38B
100
AcDbEntity
  8
0
100
AcDbBlockEnd
  0
BLOCK
  5
3AD
330
3A2
100
AcDbEntity
  8
0
100
AcDbBlockBegin
  2
*D31
 70
     1
 10
0.0
 20
0.0
 30
0.0
  3
*D31
  1

  0
LINE
  5
3A3
330
3A2
100
AcDbEntity
  8
标注
370
    -2
100
AcDbLine
 10
144.7925645583578
 20
209.5128721613436
 30
0.0
 11
155.5686348027764
 21
209.5128721613436
 31
0.0
  0
LINE
  5
3A4
330
3A2
100
AcDbEntity
  8
标注
370
    -2
100
AcDbLine
 10
144.7925645583307
 20
190.7727146810286
 30
0.0
 11
155.5686348027764
 21
190.7727146810286
 31
0.0
  0
LINE
  5
3A5
330
3A2
100
AcDbEntity
  8
标注
370
    -2
100
AcDbLine
 10
155.2486348027764
 20
208.8628721613436
 30
0.0
 11
155.2486348027764
 21
202.2927934211862
 31
0.0
  0
LINE
  5
3A6
330
3A2
100
AcDbEntity
  8
标注
370
    -2
100
AcDbLine
 10
155.2486348027764
 20
191.4227146810287
 30
0.0
 11
155.2486348027764
 21
197.9927934211861
 31
0.0
  0
SOLID
  5
3A7
330
3A2
100
AcDbEntity
  8
标注
100
AcDbTrace
 10
155.1403014694431
 20
208.8628721613436
 30
0.0
 11
155.3569681361097
 21
208.8628721613436
 31
0.0
 12
155.2486348027764
 22
209.5128721613436
 32
0.0
 13
155.2486348027764
 23
209.5128721613436
 33
0.0
  0
SOLID
  5
3A8
330
3A2
100
AcDbEntity
  8
标注
100
AcDbTrace
 10
155.1403014694431
 20
191.4227146810287
 30
0.0
 11
155.3569681361097
 21
191.4227146810287
 31
0.0
 12
155.2486348027764
 22
190.7727146810286
 32
0.0
 13
155.2486348027764
 23
190.7727146810286
 33
0.0
  0
MTEXT
  5
3A9
330
3A2
100
AcDbEntity
  8
标注
100
AcDbMText
 10
155.2486348027764
 20
200.1427934211862
 30
0.0
 40
0.65
 41
0.0
 71
     5
 72
     1
  1
\A1;18 3/4"
 11
0.0000000000000001
 21
1.0
 31
0.0
 73
     1
 44
1.0
1001
ACAD
1000
MTEXTBEGIN
1070
    73
1070
     1
1070
    44
1040
1.0
1070
    74
1070
     0
1000
MTEXTEND
  0
POINT
  5
3AA
330
3A2
100
AcDbEntity
  8
Defpoints
 62
     0
100
AcDbPoint
 10
143.9125645583578
 20
209.5128721613436
 30
0.0
  0
POINT
  5
3AB
330
3A2
100
AcDbEntity
  8
Defpoints
 62
     0
100
AcDbPoint
 10
143.9125645583307
 20
190.7727146810286
 30
0.0
  0
POINT
  5
3AC
330
3A2
100
AcDbEntity
  8
Defpoints
 62
     0
100
AcDbPoint
 10
155.2486348027764
 20
190.7727146810286
 30
0.0
  0
ENDBLK
  5
3AE
330
3A2
100
AcDbEntity
  8
0
100
AcDbBlockEnd
  0
BLOCK
  5
3BA
330
3AF
100
AcDbEntity
  8
0
100
AcDbBlockBegin
  2
*D32
 70
     1
 10
0.0
 20
0.0
 30
0.0
  3
*D32
  1

  0
LINE
  5
3B0
330
3AF
100
AcDbEntity
  8
标注
370
    -2
100
AcDbLine
 10
119.898706290688
 20
227.5530373669663
 30
0.0
 11
117.7668041979879
 21
227.5530373669663
 31
0.0
  0
LINE
  5
3B1
330
3AF
100
AcDbEntity
  8
标注
370
    -2
100
AcDbLine
 10
125.4461691089878
 20
220.0845334299561
 30
0.0
 11
117.7668041979879
 21
220.0845334299561
 31
0.0
  0
LINE
  5
3B2
330
3AF
100
AcDbEntity
  8
标注
370
    -2
100
AcDbLine
 10
118.0868041979879
 20
226.9030373669663
 30
0.0
 11
118.0868041979879
 21
225.6437853984613
 31
0.0
  0
LINE
  5
3B3
330
3AF
100
AcDbEntity
  8
标注
370
    -2
100
AcDbLine
 10
118.0868041979879
 20
220.7345334299562
 30
0.0
 11
118.0868041979879
 21
221.9937853984613
 31
0.0
  0
SOLID
  5
3B4
330
3AF
100
AcDbEntity
  8
标注
100
AcDbTrace
 10
117.9784708646546
 20
226.9030373669663
 30
0.0
 11
118.1951375313213
 21
226.9030373669663
 31
0.0
 12
118.0868041979879
 22
227.5530373669663
 32
0.0
 13
118.0868041979879
 23
227.5530373669663
 33
0.0
  0
SOLID
  5
3B5
330
3AF
100
AcDbEntity
  8
标注
100
AcDbTrace
 10
117.9784708646546
 20
220.7345334299562
 30
0.0
 11
118.1951375313212
 21
220.7345334299562
 31
0.0
 12
118.0868041979879
 22
220.0845334299561
 32
0.0
 13
118.0868041979879
 23
220.0845334299561
 33
0.0
  0
MTEXT
  5
3B6
330
3AF
100
AcDbEntity
  8
标注
100
AcDbMText
 10
118.0868041979879
 20
223.8187853984613
 30
0.0
 40
0.65
 41
0.0
 71
     5
 72
     1
  1
\A1;7 1/2"
 11
0.0000000000000001
 21
1.0
 31
0.0
 73
     1
 44
1.0
1001
ACAD
1000
MTEXTBEGIN
1070
    73
1070
     1
1070
    44
1040
1.0
1070
    74
1070
     0
1000
MTEXTEND
  0
POINT
  5
3B7
330
3AF
100
AcDbEntity
  8
Defpoints
 62
     0
100
AcDbPoint
 10
120.778706290688
 20
227.5530373669663
 30
0.0
  0
POINT
  5
3B8
330
3AF
100
AcDbEntity
  8
Defpoints
 62
     0
100
AcDbPoint
 10
126.3261691089878
 20
220.0845334299561
 30
0.0
  0
POINT
  5
3B9
330
3AF
100
AcDbEntity
  8
Defpoints
 62
     0
100
AcDbPoint
 10
118.0868041979879
 20
220.0845334299561
 30
0.0
  0
ENDBLK
  5
3BB
330
3AF
100
AcDbEntity
  8
0
100
AcDbBlockEnd
  0
BLOCK
  5
3DD
330
3DC
100
AcDbEntity
  8
0
100
AcDbBlockBegin
  2
*D33
 70
     1
 10
0.0
 20
0.0
 30
0.0
  3
*D33
  1

  0
LINE
  5
3DE
330
3DC
100
AcDbEntity
  8
标注
 62
     3
370
    -2
100
AcDbLine
 10
-1381.066254804612
 20
-467.8979183969194
 30
0.0
 11
-1333.689175764238
 21
-467.8979183969194
 31
0.0
  0
LINE
  5
3DF
330
3DC
100
AcDbEntity
  8
标注
 62
     3
370
    -2
100
AcDbLine
 10
-1491.44174555377
 20
-658.6297216881894
 30
0.0
 11
-1333.689175764238
 21
-658.6297216881894
 31
0.0
  0
LINE
  5
3E0
330
3DC
100
AcDbEntity
  8
标注
 62
     3
370
    -2
100
AcDbLine
 10
-1341.689175764238
 20
-445.8979183969194
 30
0.0
 11
-1341.689175764238
 21
-423.8979183969195
 31
0.0
  0
LINE
  5
3E1
330
3DC
100
AcDbEntity
  8
标注
 62
     3
370
    -2
100
AcDbLine
 10
-1341.689175764238
 20
-680.6297216881894
 30
0.0
 11
-1341.689175764238
 21
-702.6297216881894
 31
0.0
  0
LINE
  5
3E2
330
3DC
100
AcDbEntity
  8
标注
 62
     3
370
    -2
100
AcDbLine
 10
-1341.689175764238
 20
-467.8979183969194
 30
0.0
 11
-1341.689175764238
 21
-487.5543751975653
 31
0.0
  0
LINE
  5
3E3
330
3DC
100
AcDbEntity
  8
标注
 62
     3
370
    -2
100
AcDbLine
 10
-1341.689175764238
 20
-658.6297216881894
 30
0.0
 11
-1341.689175764238
 21
-638.9732648875437
 31
0.0
  0
SOLID
  5
3E4
330
3DC
100
AcDbEntity
  8
标注
 62
     3
100
AcDbTrace
 10
-1345.355842430905
 20
-445.8979183969194
 30
0.0
 11
-1338.022509097571
 21
-445.8979183969194
 31
0.0
 12
-1341.689175764238
 22
-467.8979183969194
 32
0.0
 13
-1341.689175764238
 23
-467.8979183969194
 33
0.0
  0
SOLID
  5
3E5
330
3DC
100
AcDbEntity
  8
标注
 62
     3
100
AcDbTrace
 10
-1345.355842430905
 20
-680.6297216881894
 30
0.0
 11
-1338.022509097572
 21
-680.6297216881894
 31
0.0
 12
-1341.689175764238
 22
-658.6297216881894
 32
0.0
 13
-1341.689175764238
 23
-658.6297216881894
 33
0.0
  0
MTEXT
  5
3E6
330
3DC
100
AcDbEntity
  8
标注
 62
     3
100
AcDbMText
 10
-1341.689175764238
 20
-563.2638200425548
 30
0.0
 40
20.0
 41
0.0
 71
     5
 72
     1
  1
\A1;191 [7 1/2"]
 11
0.0000000000000001
 21
1.0
 31
0.0
 73
     1
 44
1.0
1001
ACAD
1000
MTEXTBEGIN
1070
    73
1070
     1
1070
    44
1040
1.0
1070
    74
1070
     0
1000
MTEXTEND
  0
POINT
  5
3E7
330
3DC
100
AcDbEntity
  8
Defpoints
 62
     0
100
AcDbPoint
 10
-1406.066254804612
 20
-467.8979183969194
 30
0.0
  0
POINT
  5
3E8
330
3DC
100
AcDbEntity
  8
Defpoints
 62
     0
100
AcDbPoint
 10
-1516.44174555377
 20
-658.6297216881894
 30
0.0
  0
POINT
  5
3E9
330
3DC
100
AcDbEntity
  8
Defpoints
 62
     0
100
AcDbPoint
 10
-1341.689175764238
 20
-658.6297216881894
 30
0.0
  0
ENDBLK
  5
3EA
330
3DC
100
AcDbEntity
  8
0
100
AcDbBlockEnd
  0
BLOCK
  5
3EC
330
3EB
100
AcDbEntity
  8
0
100
AcDbBlockBegin
  2
*D34
 70
     1
 10
0.0
 20
0.0
 30
0.0
  3
*D34
  1

  0
LINE
  5
3ED
330
3EB
100
AcDbEntity
  8
标注
 62
     3
370
    -2
100
AcDbLine
 10
-2231.066254804613
 20
-467.8979183969131
 30
0.0
 11
-2287.432439666365
 21
-467.8979183969131
 31
0.0
  0
LINE
  5
3EE
330
3EB
100
AcDbEntity
  8
标注
 62
     3
370
    -2
100
AcDbLine
 10
-2025.441745552654
 20
-721.9297216882222
 30
0.0
 11
-2287.432439666365
 21
-721.9297216882222
 31
0.0
  0
LINE
  5
3EF
330
3EB
100
AcDbEntity
  8
标注
 62
     3
370
    -2
100
AcDbLine
 10
-2279.432439666365
 20
-489.8979183969131
 30
0.0
 11
-2279.432439666365
 21
-532.967893582582
 31
0.0
  0
LINE
  5
3F0
330
3EB
100
AcDbEntity
  8
标注
 62
     3
370
    -2
100
AcDbLine
 10
-2279.432439666365
 20
-699.9297216882222
 30
0.0
 11
-2279.432439666365
 21
-656.8597465025532
 31
0.0
  0
SOLID
  5
3F1
330
3EB
100
AcDbEntity
  8
标注
 62
     3
100
AcDbTrace
 10
-2283.099106333031
 20
-489.8979183969131
 30
0.0
 11
-2275.765772999698
 21
-489.8979183969131
 31
0.0
 12
-2279.432439666365
 22
-467.8979183969131
 32
0.0
 13
-2279.432439666365
 23
-467.8979183969131
 33
0.0
  0
SOLID
  5
3F2
330
3EB
100
AcDbEntity
  8
标注
 62
     3
100
AcDbTrace
 10
-2283.099106333031
 20
-699.9297216882222
 30
0.0
 11
-2275.765772999698
 21
-699.9297216882222
 31
0.0
 12
-2279.432439666365
 22
-721.9297216882222
 32
0.0
 13
-2279.432439666365
 23
-721.9297216882222
 33
0.0
  0
MTEXT
  5
3F3
330
3EB
100
AcDbEntity
  8
标注
 62
     3
100
AcDbMText
 10
-2279.432439666365
 20
-594.913820042568
 30
0.0
 40
20.0
 41
0.0
 71
     5
 72
     1
  1
\A1;254 [10"]
 11
0.0000000000000001
 21
1.0
 31
0.0
 73
     1
 44
1.0
1001
ACAD
1000
MTEXTBEGIN
1070
    73
1070
     1
1070
    44
1040
1.0
1070
    74
1070
     0
1000
MTEXTEND
  0
POINT
  5
3F4
330
3EB
100
AcDbEntity
  8
Defpoints
 62
     0
100
AcDbPoint
 10
-2206.066254804613
 20
-467.8979183969131
 30
0.0
  0
POINT
  5
3F5
330
3EB
100
AcDbEntity
  8
Defpoints
 62
     0
100
AcDbPoint
 10
-2000.441745552654
 20
-721.9297216882222
 30
0.0
  0
POINT
  5
3F6
330
3EB
100
AcDbEntity
  8
Defpoints
 62
     0
100
AcDbPoint
 10
-2279.432439666365
 20
-721.9297216882222
 30
0.0
  0
ENDBLK
  5
3F7
330
3EB
100
AcDbEntity
  8
0
100
AcDbBlockEnd
  0
BLOCK
  5
3F9
330
3F8
100
AcDbEntity
  8
0
100
AcDbBlockBegin
  2
*D35
 70
     1
 10
0.0
 20
0.0
 30
0.0
  3
*D35
  1

  0
LINE
  5
3FA
330
3F8
100
AcDbEntity
  8
标注
 62
     3
370
    -2
100
AcDbLine
 10
-1538.841254804612
 20
-935.0349354782311
 30
0.0
 11
-1328.570385260659
 21
-935.0349354782311
 31
0.0
  0
LINE
  5
3FB
330
3F8
100
AcDbEntity
  8
标注
 62
     3
370
    -2
100
AcDbLine
 10
-1538.841254804614
 20
-1341.03493547823
 30
0.0
 11
-1328.570385260659
 21
-1341.03493547823
 31
0.0
  0
LINE
  5
3FC
330
3F8
100
AcDbEntity
  8
标注
 62
     3
370
    -2
100
AcDbLine
 10
-1336.570385260658
 20
-957.034935478231
 30
0.0
 11
-1336.570385260658
 21
-1076.002491354222
 31
0.0
  0
LINE
  5
3FD
330
3F8
100
AcDbEntity
  8
标注
 62
     3
370
    -2
100
AcDbLine
 10
-1336.570385260658
 20
-1319.03493547823
 30
0.0
 11
-1336.570385260658
 21
-1200.067379602239
 31
0.0
  0
SOLID
  5
3FE
330
3F8
100
AcDbEntity
  8
标注
 62
     3
100
AcDbTrace
 10
-1340.237051927325
 20
-957.034935478231
 30
0.0
 11
-1332.903718593992
 21
-957.034935478231
 31
0.0
 12
-1336.570385260658
 22
-935.0349354782311
 32
0.0
 13
-1336.570385260658
 23
-935.0349354782311
 33
0.0
  0
SOLID
  5
3FF
330
3F8
100
AcDbEntity
  8
标注
 62
     3
100
AcDbTrace
 10
-1340.237051927325
 20
-1319.03493547823
 30
0.0
 11
-1332.903718593992
 21
-1319.03493547823
 31
0.0
 12
-1336.570385260658
 22
-1341.03493547823
 32
0.0
 13
-1336.570385260658
 23
-1341.03493547823
 33
0.0
  0
MTEXT
  5
400
330
3F8
100
AcDbEntity
  8
标注
 62
     3
100
AcDbMText
 10
-1336.570385260658
 20
-1138.034935478231
 30
0.0
 40
20.0
 41
0.0
 71
     5
 72
     1
  1
\A1;406 [16"]
 11
0.0000000000000001
 21
1.0
 31
0.0
 73
     1
 44
1.0
1001
ACAD
1000
MTEXTBEGIN
1070
    73
1070
     1
1070
    44
1040
1.0
1070
    74
1070
     0
1000
MTEXTEND
  0
POINT
  5
401
330
3F8
100
AcDbEntity
  8
Defpoints
 62
     0
100
AcDbPoint
 10
-1563.841254804612
 20
-935.0349354782311
 30
0.0
  0
POINT
  5
402
330
3F8
100
AcDbEntity
  8
Defpoints
 62
     0
100
AcDbPoint
 10
-1563.841254804614
 20
-1341.03493547823
 30
0.0
  0
POINT
  5
403
330
3F8
100
AcDbEntity
  8
Defpoints
 62
     0
100
AcDbPoint
 10
-1336.570385260658
 20
-1341.03493547823
 30
0.0
  0
ENDBLK
  5
404
330
3F8
100
AcDbEntity
  8
0
100
AcDbBlockEnd
  0
BLOCK
  5
406
330
405
100
AcDbEntity
  8
0
100
AcDbBlockBegin
  2
*D36
 70
     1
 10
0.0
 20
0.0
 30
0.0
  3
*D36
  1

  0
LINE
  5
407
330
405
100
AcDbEntity
  8
标注
 62
     3
370
    -2
100
AcDbLine
 10
-1486.466254804612
 20
-909.6349354782304
 30
0.0
 11
-1262.420070667314
 21
-909.6349354782304
 31
0.0
  0
LINE
  5
408
330
405
100
AcDbEntity
  8
标注
 62
     3
370
    -2
100
AcDbLine
 10
-1486.466254804612
 20
-1366.43493547823
 30
0.0
 11
-1262.420070667314
 21
-1366.43493547823
 31
0.0
  0
LINE
  5
409
330
405
100
AcDbEntity
  8
标注
 62
     3
370
    -2
100
AcDbLine
 10
-1270.420070667314
 20
-931.6349354782303
 30
0.0
 11
-1270.420070667314
 21
-1076.002491354222
 31
0.0
  0
LINE
  5
40A
330
405
100
AcDbEntity
  8
标注
 62
     3
370
    -2
100
AcDbLine
 10
-1270.420070667314
 20
-1344.43493547823
 30
0.0
 11
-1270.420070667314
 21
-1200.067379602239
 31
0.0
  0
SOLID
  5
40B
330
405
100
AcDbEntity
  8
标注
 62
     3
100
AcDbTrace
 10
-1274.086737333981
 20
-931.6349354782303
 30
0.0
 11
-1266.753404000648
 21
-931.6349354782303
 31
0.0
 12
-1270.420070667314
 22
-909.6349354782304
 32
0.0
 13
-1270.420070667314
 23
-909.6349354782304
 33
0.0
  0
SOLID
  5
40C
330
405
100
AcDbEntity
  8
标注
 62
     3
100
AcDbTrace
 10
-1274.086737333981
 20
-1344.43493547823
 30
0.0
 11
-1266.753404000648
 21
-1344.43493547823
 31
0.0
 12
-1270.420070667314
 22
-1366.43493547823
 32
0.0
 13
-1270.420070667314
 23
-1366.43493547823
 33
0.0
  0
MTEXT
  5
40D
330
405
100
AcDbEntity
  8
标注
 62
     3
100
AcDbMText
 10
-1270.420070667314
 20
-1138.034935478231
 30
0.0
 40
20.0
 41
0.0
 71
     5
 72
     1
  1
\A1;457 [18"]
 11
0.0000000000000001
 21
1.0
 31
0.0
 73
     1
 44
1.0
1001
ACAD
1000
MTEXTBEGIN
1070
    73
1070
     1
1070
    44
1040
1.0
1070
    74
1070
     0
1000
MTEXTEND
  0
POINT
  5
40E
330
405
100
AcDbEntity
  8
Defpoints
 62
     0
100
AcDbPoint
 10
-1511.466254804612
 20
-909.6349354782304
 30
0.0
  0
POINT
  5
40F
330
405
100
AcDbEntity
  8
Defpoints
 62
     0
100
AcDbPoint
 10
-1511.466254804612
 20
-1366.43493547823
 30
0.0
  0
POINT
  5
410
330
405
100
AcDbEntity
  8
Defpoints
 62
     0
100
AcDbPoint
 10
-1270.420070667314
 20
-1366.43493547823
 30
0.0
  0
ENDBLK
  5
411
330
405
100
AcDbEntity
  8
0
100
AcDbBlockEnd
  0
BLOCK
  5
413
330
412
100
AcDbEntity
  8
0
100
AcDbBlockBegin
  2
*D37
 70
     1
 10
0.0
 20
0.0
 30
0.0
  3
*D37
  1

  0
LINE
  5
414
330
412
100
AcDbEntity
  8
标注
 62
     3
370
    -2
100
AcDbLine
 10
-1696.841254804612
 20
-1163.65993547823
 30
0.0
 11
-1696.841254804612
 21
-1429.283679134391
 31
0.0
  0
LINE
  5
415
330
412
100
AcDbEntity
  8
标注
 62
     3
370
    -2
100
AcDbLine
 10
-1430.841254804612
 20
-1163.034935478232
 30
0.0
 11
-1430.841254804612
 21
-1429.283679134391
 31
0.0
  0
LINE
  5
416
330
412
100
AcDbEntity
  8
标注
 62
     3
370
    -2
100
AcDbLine
 10
-1674.841254804612
 20
-1421.283679134391
 30
0.0
 11
-1648.346662158613
 21
-1421.283679134391
 31
0.0
  0
LINE
  5
417
330
412
100
AcDbEntity
  8
标注
 62
     3
370
    -2
100
AcDbLine
 10
-1452.841254804612
 20
-1421.283679134391
 30
0.0
 11
-1479.335847450611
 21
-1421.283679134391
 31
0.0
  0
SOLID
  5
418
330
412
100
AcDbEntity
  8
标注
 62
     3
100
AcDbTrace
 10
-1674.841254804612
 20
-1417.617012467724
 30
0.0
 11
-1674.841254804612
 21
-1424.950345801057
 31
0.0
 12
-1696.841254804612
 22
-1421.283679134391
 32
0.0
 13
-1696.841254804612
 23
-1421.283679134391
 33
0.0
  0
SOLID
  5
419
330
412
100
AcDbEntity
  8
标注
 62
     3
100
AcDbTrace
 10
-1452.841254804612
 20
-1417.617012467724
 30
0.0
 11
-1452.841254804612
 21
-1424.950345801057
 31
0.0
 12
-1430.841254804612
 22
-1421.283679134391
 32
0.0
 13
-1430.841254804612
 23
-1421.283679134391
 33
0.0
  0
MTEXT
  5
41A
330
412
100
AcDbEntity
  8
标注
 62
     3
100
AcDbMText
 10
-1563.841254804612
 20
-1421.283679134391
 30
0.0
 40
20.0
 41
0.0
 71
     5
 72
     1
  1
\A1;266 [10 1/2"]
 73
     1
 44
1.0
1001
ACAD
1000
MTEXTBEGIN
1070
    73
1070
     1
1070
    44
1040
1.0
1070
    74
1070
     0
1000
MTEXTEND
  0
POINT
  5
41B
330
412
100
AcDbEntity
  8
Defpoints
 62
     0
100
AcDbPoint
 10
-1696.841254804612
 20
-1138.65993547823
 30
0.0
  0
POINT
  5
41C
330
412
100
AcDbEntity
  8
Defpoints
 62
     0
100
AcDbPoint
 10
-1430.841254804612
 20
-1138.034935478231
 30
0.0
  0
POINT
  5
41D
330
412
100
AcDbEntity
  8
Defpoints
 62
     0
100
AcDbPoint
 10
-1430.841254804612
 20
-1421.283679134391
 30
0.0
  0
ENDBLK
  5
41E
330
412
100
AcDbEntity
  8
0
100
AcDbBlockEnd
  0
BLOCK
  5
420
330
41F
100
AcDbEntity
  8
0
100
AcDbBlockBegin
  2
*D38
 70
     1
 10
0.0
 20
0.0
 30
0.0
  3
*D38
  1

  0
LINE
  5
421
330
41F
100
AcDbEntity
  8
标注
 62
     3
370
    -2
100
AcDbLine
 10
-1730.041254804613
 20
-1266.03493547823
 30
0.0
 11
-1730.041254804613
 21
-1428.476936912438
 31
0.0
  0
LINE
  5
422
330
41F
100
AcDbEntity
  8
标注
 62
     3
370
    -2
100
AcDbLine
 10
-2180.041254804613
 20
-1266.03493547823
 30
0.0
 11
-2180.041254804613
 21
-1428.476936912438
 31
0.0
  0
LINE
  5
423
330
41F
100
AcDbEntity
  8
标注
 62
     3
370
    -2
100
AcDbLine
 10
-1752.041254804613
 20
-1420.476936912438
 30
0.0
 11
-1870.449329786588
 21
-1420.476936912438
 31
0.0
  0
LINE
  5
424
330
41F
100
AcDbEntity
  8
标注
 62
     3
370
    -2
100
AcDbLine
 10
-2158.041254804613
 20
-1420.476936912438
 30
0.0
 11
-2039.633179822637
 21
-1420.476936912438
 31
0.0
  0
SOLID
  5
425
330
41F
100
AcDbEntity
  8
标注
 62
     3
100
AcDbTrace
 10
-1752.041254804613
 20
-1416.810270245771
 30
0.0
 11
-1752.041254804613
 21
-1424.143603579105
 31
0.0
 12
-1730.041254804613
 22
-1420.476936912438
 32
0.0
 13
-1730.041254804613
 23
-1420.476936912438
 33
0.0
  0
SOLID
  5
426
330
41F
100
AcDbEntity
  8
标注
 62
     3
100
AcDbTrace
 10
-2158.041254804613
 20
-1416.810270245771
 30
0.0
 11
-2158.041254804613
 21
-1424.143603579105
 31
0.0
 12
-2180.041254804613
 22
-1420.476936912438
 32
0.0
 13
-2180.041254804613
 23
-1420.476936912438
 33
0.0
  0
MTEXT
  5
427
330
41F
100
AcDbEntity
  8
标注
 62
     3
100
AcDbMText
 10
-1955.041254804613
 20
-1420.476936912438
 30
0.0
 40
20.0
 41
0.0
 71
     5
 72
     1
  1
\A1;450 [17 3/4"]
 73
     1
 44
1.0
1001
ACAD
1000
MTEXTBEGIN
1070
    73
1070
     1
1070
    44
1040
1.0
1070
    74
1070
     0
1000
MTEXTEND
  0
POINT
  5
428
330
41F
100
AcDbEntity
  8
Defpoints
 62
     0
100
AcDbPoint
 10
-1730.041254804613
 20
-1241.03493547823
 30
0.0
  0
POINT
  5
429
330
41F
100
AcDbEntity
  8
Defpoints
 62
     0
100
AcDbPoint
 10
-2180.041254804613
 20
-1241.03493547823
 30
0.0
  0
POINT
  5
42A
330
41F
100
AcDbEntity
  8
Defpoints
 62
     0
100
AcDbPoint
 10
-2180.041254804613
 20
-1420.476936912438
 30
0.0
  0
ENDBLK
  5
42B
330
41F
100
AcDbEntity
  8
0
100
AcDbBlockEnd
  0
BLOCK
  5
42D
330
42C
100
AcDbEntity
  8
0
100
AcDbBlockBegin
  2
*D39
 70
     1
 10
0.0
 20
0.0
 30
0.0
  3
*D39
  1

  0
LINE
  5
42E
330
42C
100
AcDbEntity
  8
标注
 62
     3
370
    -2
100
AcDbLine
 10
-2206.066254804614
 20
-1266.03493547823
 30
0.0
 11
-2206.066254804614
 21
-1482.044374649878
 31
0.0
  0
LINE
  5
42F
330
42C
100
AcDbEntity
  8
标注
 62
     3
370
    -2
100
AcDbLine
 10
-1406.066254804611
 20
-1286.03493547823
 30
0.0
 11
-1406.066254804611
 21
-1482.044374649878
 31
0.0
  0
LINE
  5
430
330
42C
100
AcDbEntity
  8
标注
 62
     3
370
    -2
100
AcDbLine
 10
-2184.066254804614
 20
-1474.044374649878
 30
0.0
 11
-1889.994877731793
 21
-1474.044374649878
 31
0.0
  0
LINE
  5
431
330
42C
100
AcDbEntity
  8
标注
 62
     3
370
    -2
100
AcDbLine
 10
-1428.066254804611
 20
-1474.044374649878
 30
0.0
 11
-1722.137631877432
 21
-1474.044374649878
 31
0.0
  0
SOLID
  5
432
330
42C
100
AcDbEntity
  8
标注
 62
     3
100
AcDbTrace
 10
-2184.066254804614
 20
-1470.377707983212
 30
0.0
 11
-2184.066254804614
 21
-1477.711041316545
 31
0.0
 12
-2206.066254804614
 22
-1474.044374649878
 32
0.0
 13
-2206.066254804614
 23
-1474.044374649878
 33
0.0
  0
SOLID
  5
433
330
42C
100
AcDbEntity
  8
标注
 62
     3
100
AcDbTrace
 10
-1428.066254804611
 20
-1470.377707983212
 30
0.0
 11
-1428.066254804611
 21
-1477.711041316545
 31
0.0
 12
-1406.066254804611
 22
-1474.044374649878
 32
0.0
 13
-1406.066254804611
 23
-1474.044374649878
 33
0.0
  0
MTEXT
  5
434
330
42C
100
AcDbEntity
  8
标注
 62
     3
100
AcDbMText
 10
-1806.066254804612
 20
-1474.044374649878
 30
0.0
 40
20.0
 41
0.0
 71
     5
 72
     1
  1
\A1;800 [31 1/2"]
 73
     1
 44
1.0
1001
ACAD
1000
MTEXTBEGIN
1070
    73
1070
     1
1070
    44
1040
1.0
1070
    74
1070
     0
1000
MTEXTEND
  0
POINT
  5
435
330
42C
100
AcDbEntity
  8
Defpoints
 62
     0
100
AcDbPoint
 10
-2206.066254804614
 20
-1241.03493547823
 30
0.0
  0
POINT
  5
436
330
42C
100
AcDbEntity
  8
Defpoints
 62
     0
100
AcDbPoint
 10
-1406.066254804611
 20
-1261.03493547823
 30
0.0
  0
POINT
  5
437
330
42C
100
AcDbEntity
  8
Defpoints
 62
     0
100
AcDbPoint
 10
-1406.066254804611
 20
-1474.044374649878
 30
0.0
  0
ENDBLK
  5
438
330
42C
100
AcDbEntity
  8
0
100
AcDbBlockEnd
  0
BLOCK
  5
43A
330
439
100
AcDbEntity
  8
0
100
AcDbBlockBegin
  2
*D40
 70
     1
 10
0.0
 20
0.0
 30
0.0
  3
*D40
  1

  0
LINE
  5
43B
330
439
100
AcDbEntity
  8
标注
 62
     3
370
    -2
100
AcDbLine
 10
-1980.041254804609
 20
-871.0349354782303
 30
0.0
 11
-2286.200665855865
 21
-871.0349354782303
 31
0.0
  0
LINE
  5
43C
330
439
100
AcDbEntity
  8
标注
 62
     3
370
    -2
100
AcDbLine
 10
-2105.041254804613
 20
-1341.03493547823
 30
0.0
 11
-2286.200665855866
 21
-1341.03493547823
 31
0.0
  0
LINE
  5
43D
330
439
100
AcDbEntity
  8
标注
 62
     3
370
    -2
100
AcDbLine
 10
-2278.200665855866
 20
-893.0349354782302
 30
0.0
 11
-2278.200665855866
 21
-1021.443010460205
 31
0.0
  0
LINE
  5
43E
330
439
100
AcDbEntity
  8
标注
 62
     3
370
    -2
100
AcDbLine
 10
-2278.200665855866
 20
-1319.03493547823
 30
0.0
 11
-2278.200665855866
 21
-1190.626860496254
 31
0.0
  0
SOLID
  5
43F
330
439
100
AcDbEntity
  8
标注
 62
     3
100
AcDbTrace
 10
-2281.867332522532
 20
-893.0349354782302
 30
0.0
 11
-2274.533999189199
 21
-893.0349354782302
 31
0.0
 12
-2278.200665855866
 22
-871.0349354782303
 32
0.0
 13
-2278.200665855866
 23
-871.0349354782303
 33
0.0
  0
SOLID
  5
440
330
439
100
AcDbEntity
  8
标注
 62
     3
100
AcDbTrace
 10
-2281.867332522532
 20
-1319.03493547823
 30
0.0
 11
-2274.533999189199
 21
-1319.03493547823
 31
0.0
 12
-2278.200665855866
 22
-1341.03493547823
 32
0.0
 13
-2278.200665855866
 23
-1341.03493547823
 33
0.0
  0
MTEXT
  5
441
330
439
100
AcDbEntity
  8
标注
 62
     3
100
AcDbMText
 10
-2278.200665855866
 20
-1106.03493547823
 30
0.0
 40
20.0
 41
0.0
 71
     5
 72
     1
  1
\A1;470 [18 1/2"]
 11
0.0000000000000001
 21
1.0
 31
0.0
 73
     1
 44
1.0
1001
ACAD
1000
MTEXTBEGIN
1070
    73
1070
     1
1070
    44
1040
1.0
1070
    74
1070
     0
1000
MTEXTEND
  0
POINT
  5
442
330
439
100
AcDbEntity
  8
Defpoints
 62
     0
100
AcDbPoint
 10
-1955.041254804609
 20
-871.0349354782303
 30
0.0
  0
POINT
  5
443
330
439
100
AcDbEntity
  8
Defpoints
 62
     0
100
AcDbPoint
 10
-2080.041254804613
 20
-1341.03493547823
 30
0.0
  0
POINT
  5
444
330
439
100
AcDbEntity
  8
Defpoints
 62
     0
100
AcDbPoint
 10
-2278.200665855866
 20
-1341.03493547823
 30
0.0
  0
ENDBLK
  5
445
330
439
100
AcDbEntity
  8
0
100
AcDbBlockEnd
  0
BLOCK
  5
447
330
446
100
AcDbEntity
  8
0
100
AcDbBlockBegin
  2
*D41
 70
     1
 10
0.0
 20
0.0
 30
0.0
  3
*D41
  1

  0
LINE
  5
448
330
446
100
AcDbEntity
  8
标注
 62
     3
370
    -2
100
AcDbLine
 10
-1980.666254804613
 20
-845.6349354782302
 30
0.0
 11
-2347.484285926061
 21
-845.6349354782302
 31
0.0
  0
LINE
  5
449
330
446
100
AcDbEntity
  8
标注
 62
     3
370
    -2
100
AcDbLine
 10
-2105.666254804613
 20
-1366.434935478231
 30
0.0
 11
-2347.484285926062
 21
-1366.434935478231
 31
0.0
  0
LINE
  5
44A
330
446
100
AcDbEntity
  8
标注
 62
     3
370
    -2
100
AcDbLine
 10
-2339.484285926062
 20
-867.6349354782301
 30
0.0
 11
-2339.484285926062
 21
-1021.918857612333
 31
0.0
  0
LINE
  5
44B
330
446
100
AcDbEntity
  8
标注
 62
     3
370
    -2
100
AcDbLine
 10
-2339.484285926062
 20
-1344.434935478231
 30
0.0
 11
-2339.484285926062
 21
-1190.151013344128
 31
0.0
  0
SOLID
  5
44C
330
446
100
AcDbEntity
  8
标注
 62
     3
100
AcDbTrace
 10
-2343.150952592728
 20
-867.6349354782301
 30
0.0
 11
-2335.817619259395
 21
-867.6349354782301
 31
0.0
 12
-2339.484285926062
 22
-845.6349354782302
 32
0.0
 13
-2339.484285926062
 23
-845.6349354782302
 33
0.0
  0
SOLID
  5
44D
330
446
100
AcDbEntity
  8
标注
 62
     3
100
AcDbTrace
 10
-2343.150952592728
 20
-1344.434935478231
 30
0.0
 11
-2335.817619259395
 21
-1344.434935478231
 31
0.0
 12
-2339.484285926062
 22
-1366.434935478231
 32
0.0
 13
-2339.484285926062
 23
-1366.434935478231
 33
0.0
  0
MTEXT
  5
44E
330
446
100
AcDbEntity
  8
标注
 62
     3
100
AcDbMText
 10
-2339.484285926062
 20
-1106.034935478231
 30
0.0
 40
20.0
 41
0.0
 71
     5
 72
     1
  1
\A1;521 [20 1/2"]
 11
0.0000000000000001
 21
1.0
 31
0.0
 73
     1
 44
1.0
1001
ACAD
1000
MTEXTBEGIN
1070
    73
1070
     1
1070
    44
1040
1.0
1070
    74
1070
     0
1000
MTEXTEND
  0
POINT
  5
44F
330
446
100
AcDbEntity
  8
Defpoints
 62
     0
100
AcDbPoint
 10
-1955.666254804613
 20
-845.6349354782302
 30
0.0
  0
POINT
  5
450
330
446
100
AcDbEntity
  8
Defpoints
 62
     0
100
AcDbPoint
 10
-2080.666254804613
 20
-1366.434935478231
 30
0.0
  0
POINT
  5
451
330
446
100
AcDbEntity
  8
Defpoints
 62
     0
100
AcDbPoint
 10
-2339.484285926062
 20
-1366.434935478231
 30
0.0
  0
ENDBLK
  5
452
330
446
100
AcDbEntity
  8
0
100
AcDbBlockEnd
  0
BLOCK
  5
4F6
330
4EB
100
AcDbEntity
  8
0
100
AcDbBlockBegin
  2
*D42
 70
     1
 10
0.0
 20
0.0
 30
0.0
  3
*D42
  1

  0
LINE
  5
743
330
4EB
100
AcDbEntity
  8
标注
370
    -2
100
AcDbLine
 10
96.62664055226835
 20
227.670013658806
 30
0.0
 11
98.60117122314928
 21
227.670013658806
 31
0.0
  0
LINE
  5
744
330
4EB
100
AcDbEntity
  8
标注
370
    -2
100
AcDbLine
 10
92.28114879049149
 20
220.6608875449765
 30
0.0
 11
98.60117122314928
 21
220.6608875449765
 31
0.0
  0
LINE
  5
745
330
4EB
100
AcDbEntity
  8
标注
370
    -2
100
AcDbLine
 10
98.28117122314928
 20
227.020013658806
 30
0.0
 11
98.28117122314928
 21
224.7987839352246
 31
0.0
  0
LINE
  5
746
330
4EB
100
AcDbEntity
  8
标注
370
    -2
100
AcDbLine
 10
98.28117122314928
 20
221.3108875449766
 30
0.0
 11
98.28117122314928
 21
223.5321172685579
 31
0.0
  0
SOLID
  5
747
330
4EB
100
AcDbEntity
  8
标注
100
AcDbTrace
 10
98.17283788981598
 20
227.020013658806
 30
0.0
 11
98.38950455648262
 21
227.020013658806
 31
0.0
 12
98.28117122314928
 22
227.670013658806
 32
0.0
 13
98.28117122314928
 23
227.670013658806
 33
0.0
  0
SOLID
  5
748
330
4EB
100
AcDbEntity
  8
标注
100
AcDbTrace
 10
98.17283788981594
 20
221.3108875449766
 30
0.0
 11
98.3895045564826
 21
221.3108875449766
 31
0.0
 12
98.28117122314928
 22
220.6608875449765
 32
0.0
 13
98.28117122314928
 23
220.6608875449765
 33
0.0
  0
MTEXT
  5
749
330
4EB
100
AcDbEntity
  8
标注
100
AcDbMText
 10
98.28117122314925
 20
224.1654506018913
 30
0.0
 40
0.65
 41
0.0
 71
     5
 72
     1
  1
\A1;7"
 11
0.0000000000000001
 21
1.0
 31
0.0
 73
     1
 44
1.0
1001
ACAD
1000
MTEXTBEGIN
1070
    73
1070
     1
1070
    44
1040
1.0
1070
    74
1070
     0
1000
MTEXTEND
  0
POINT
  5
74A
330
4EB
100
AcDbEntity
  8
Defpoints
 62
     0
100
AcDbPoint
 10
95.74664055226831
 20
227.670013658806
 30
0.0
  0
POINT
  5
74B
330
4EB
100
AcDbEntity
  8
Defpoints
 62
     0
100
AcDbPoint
 10
91.40114879049148
 20
220.6608875449765
 30
0.0
  0
POINT
  5
74C
330
4EB
100
AcDbEntity
  8
Defpoints
 62
     0
100
AcDbPoint
 10
98.28117122314928
 20
220.6608875449765
 30
0.0
  0
ENDBLK
  5
4F7
330
4EB
100
AcDbEntity
  8
0
100
AcDbBlockEnd
  0
BLOCK
  5
503
330
4F8
100
AcDbEntity
  8
0
100
AcDbBlockBegin
  2
*D43
 70
     1
 10
0.0
 20
0.0
 30
0.0
  3
*D43
  1

  0
LINE
  5
66F
330
4F8
100
AcDbEntity
  8
标注
370
    -2
100
AcDbLine
 10
63.37057756014234
 20
226.864105212042
 30
0.0
 11
61.04214508527022
 21
226.864105212042
 31
0.0
  0
LINE
  5
670
330
4F8
100
AcDbEntity
  8
标注
370
    -2
100
AcDbLine
 10
71.46603068029818
 20
217.8628531139588
 30
0.0
 11
61.04214508527022
 21
217.8628531139588
 31
0.0
  0
LINE
  5
671
330
4F8
100
AcDbEntity
  8
标注
370
    -2
100
AcDbLine
 10
61.36214508527022
 20
226.2141052120419
 30
0.0
 11
61.36214508527022
 21
222.9968124963336
 31
0.0
  0
LINE
  5
672
330
4F8
100
AcDbEntity
  8
标注
370
    -2
100
AcDbLine
 10
61.36214508527022
 20
218.5128531139589
 30
0.0
 11
61.36214508527022
 21
221.730145829667
 31
0.0
  0
SOLID
  5
673
330
4F8
100
AcDbEntity
  8
标注
100
AcDbTrace
 10
61.25381175193688
 20
226.2141052120419
 30
0.0
 11
61.47047841860356
 21
226.2141052120419
 31
0.0
 12
61.36214508527022
 22
226.864105212042
 32
0.0
 13
61.36214508527022
 23
226.864105212042
 33
0.0
  0
SOLID
  5
674
330
4F8
100
AcDbEntity
  8
标注
100
AcDbTrace
 10
61.25381175193688
 20
218.5128531139589
 30
0.0
 11
61.47047841860356
 21
218.5128531139589
 31
0.0
 12
61.36214508527022
 22
217.8628531139588
 32
0.0
 13
61.36214508527022
 23
217.8628531139588
 33
0.0
  0
MTEXT
  5
675
330
4F8
100
AcDbEntity
  8
标注
100
AcDbMText
 10
61.36214508527018
 20
222.3634791630003
 30
0.0
 40
0.65
 41
0.0
 71
     5
 72
     1
  1
\A1;9"
 11
0.0000000000000001
 21
1.0
 31
0.0
 73
     1
 44
1.0
1001
ACAD
1000
MTEXTBEGIN
1070
    73
1070
     1
1070
    44
1040
1.0
1070
    74
1070
     0
1000
MTEXTEND
  0
POINT
  5
676
330
4F8
100
AcDbEntity
  8
Defpoints
 62
     0
100
AcDbPoint
 10
64.25057756014236
 20
226.8641052120419
 30
0.0
  0
POINT
  5
677
330
4F8
100
AcDbEntity
  8
Defpoints
 62
     0
100
AcDbPoint
 10
72.34603068029817
 20
217.8628531139588
 30
0.0
  0
POINT
  5
678
330
4F8
100
AcDbEntity
  8
Defpoints
 62
     0
100
AcDbPoint
 10
61.36214508527022
 20
217.8628531139588
 30
0.0
  0
ENDBLK
  5
504
330
4F8
100
AcDbEntity
  8
0
100
AcDbBlockEnd
  0
BLOCK
  5
510
330
505
100
AcDbEntity
  8
0
100
AcDbBlockBegin
  2
*D44
 70
     1
 10
0.0
 20
0.0
 30
0.0
  3
*D44
  1

  0
LINE
  5
72F
330
505
100
AcDbEntity
  8
标注
370
    -2
100
AcDbLine
 10
90.4150263790399
 20
206.1436763449231
 30
0.0
 11
98.80269840832944
 21
206.1436763449231
 31
0.0
  0
LINE
  5
730
330
505
100
AcDbEntity
  8
标注
370
    -2
100
AcDbLine
 10
90.41502637903979
 20
190.1594243764192
 30
0.0
 11
98.80269840832944
 21
190.1594243764192
 31
0.0
  0
LINE
  5
731
330
505
100
AcDbEntity
  8
标注
370
    -2
100
AcDbLine
 10
98.48269840832942
 20
205.4936763449231
 30
0.0
 11
98.48269840832942
 21
199.0015503606711
 31
0.0
  0
LINE
  5
732
330
505
100
AcDbEntity
  8
标注
370
    -2
100
AcDbLine
 10
98.48269840832942
 20
190.8094243764191
 30
0.0
 11
98.48269840832942
 21
197.3015503606711
 31
0.0
  0
SOLID
  5
733
330
505
100
AcDbEntity
  8
标注
100
AcDbTrace
 10
98.3743650749961
 20
205.4936763449231
 30
0.0
 11
98.59103174166278
 21
205.4936763449231
 31
0.0
 12
98.48269840832942
 22
206.1436763449231
 32
0.0
 13
98.48269840832942
 23
206.1436763449231
 33
0.0
  0
SOLID
  5
734
330
505
100
AcDbEntity
  8
标注
100
AcDbTrace
 10
98.3743650749961
 20
190.8094243764191
 30
0.0
 11
98.59103174166278
 21
190.8094243764191
 31
0.0
 12
98.48269840832942
 22
190.1594243764192
 32
0.0
 13
98.48269840832942
 23
190.1594243764192
 33
0.0
  0
MTEXT
  5
735
330
505
100
AcDbEntity
  8
标注
100
AcDbMText
 10
98.48269840832941
 20
198.1515503606711
 30
0.0
 40
0.65
 41
0.0
 71
     5
 72
     1
  1
\A1;16"
 11
0.0000000000000001
 21
1.0
 31
0.0
 73
     1
 44
1.0
1001
ACAD
1000
MTEXTBEGIN
1070
    73
1070
     1
1070
    44
1040
1.0
1070
    74
1070
     0
1000
MTEXTEND
  0
POINT
  5
736
330
505
100
AcDbEntity
  8
Defpoints
 62
     0
100
AcDbPoint
 10
89.53502637903989
 20
206.1436763449231
 30
0.0
  0
POINT
  5
737
330
505
100
AcDbEntity
  8
Defpoints
 62
     0
100
AcDbPoint
 10
89.53502637903978
 20
190.1594243764192
 30
0.0
  0
POINT
  5
738
330
505
100
AcDbEntity
  8
Defpoints
 62
     0
100
AcDbPoint
 10
98.48269840832942
 20
190.1594243764192
 30
0.0
  0
ENDBLK
  5
511
330
505
100
AcDbEntity
  8
0
100
AcDbBlockEnd
  0
BLOCK
  5
51D
330
512
100
AcDbEntity
  8
0
100
AcDbBlockBegin
  2
*D45
 70
     1
 10
0.0
 20
0.0
 30
0.0
  3
*D45
  1

  0
LINE
  5
725
330
512
100
AcDbEntity
  8
标注
370
    -2
100
AcDbLine
 10
92.47703425305564
 20
207.1436763449231
 30
0.0
 11
101.4070415025555
 21
207.1436763449231
 31
0.0
  0
LINE
  5
726
330
512
100
AcDbEntity
  8
标注
370
    -2
100
AcDbLine
 10
92.47703425305564
 20
189.1594243764192
 30
0.0
 11
101.4070415025555
 21
189.1594243764192
 31
0.0
  0
LINE
  5
727
330
512
100
AcDbEntity
  8
标注
370
    -2
100
AcDbLine
 10
101.0870415025555
 20
206.4936763449231
 30
0.0
 11
101.0870415025555
 21
199.0015503606711
 31
0.0
  0
LINE
  5
728
330
512
100
AcDbEntity
  8
标注
370
    -2
100
AcDbLine
 10
101.0870415025555
 20
189.8094243764191
 30
0.0
 11
101.0870415025555
 21
197.3015503606712
 31
0.0
  0
SOLID
  5
729
330
512
100
AcDbEntity
  8
标注
100
AcDbTrace
 10
100.9787081692221
 20
206.4936763449231
 30
0.0
 11
101.1953748358888
 21
206.4936763449231
 31
0.0
 12
101.0870415025555
 22
207.1436763449231
 32
0.0
 13
101.0870415025555
 23
207.1436763449231
 33
0.0
  0
SOLID
  5
72A
330
512
100
AcDbEntity
  8
标注
100
AcDbTrace
 10
100.9787081692221
 20
189.8094243764191
 30
0.0
 11
101.1953748358888
 21
189.8094243764191
 31
0.0
 12
101.0870415025555
 22
189.1594243764192
 32
0.0
 13
101.0870415025555
 23
189.1594243764192
 33
0.0
  0
MTEXT
  5
72B
330
512
100
AcDbEntity
  8
标注
100
AcDbMText
 10
101.0870415025554
 20
198.1515503606712
 30
0.0
 40
0.65
 41
0.0
 71
     5
 72
     1
  1
\A1;18"
 11
0.0000000000000001
 21
1.0
 31
0.0
 73
     1
 44
1.0
1001
ACAD
1000
MTEXTBEGIN
1070
    73
1070
     1
1070
    44
1040
1.0
1070
    74
1070
     0
1000
MTEXTEND
  0
POINT
  5
72C
330
512
100
AcDbEntity
  8
Defpoints
 62
     0
100
AcDbPoint
 10
91.59703425305565
 20
207.1436763449231
 30
0.0
  0
POINT
  5
72D
330
512
100
AcDbEntity
  8
Defpoints
 62
     0
100
AcDbPoint
 10
91.59703425305565
 20
189.1594243764192
 30
0.0
  0
POINT
  5
72E
330
512
100
AcDbEntity
  8
Defpoints
 62
     0
100
AcDbPoint
 10
101.0870415025555
 20
189.1594243764192
 30
0.0
  0
ENDBLK
  5
51E
330
512
100
AcDbEntity
  8
0
100
AcDbBlockEnd
  0
BLOCK
  5
52A
330
51F
100
AcDbEntity
  8
0
100
AcDbBlockBegin
  2
*D46
 70
     1
 10
0.0
 20
0.0
 30
0.0
  3
*D46
  1

  0
LINE
  5
71B
330
51F
100
AcDbEntity
  8
标注
370
    -2
100
AcDbLine
 10
84.298805906599
 20
197.2469440614585
 30
0.0
 11
84.298805906599
 21
186.6800250198774
 31
0.0
  0
LINE
  5
71C
330
51F
100
AcDbEntity
  8
标注
370
    -2
100
AcDbLine
 10
94.77124685148078
 20
197.2715503606711
 30
0.0
 11
94.77124685148078
 21
186.6800250198774
 31
0.0
  0
LINE
  5
71D
330
51F
100
AcDbEntity
  8
标注
370
    -2
100
AcDbLine
 10
84.94880590659901
 20
187.0000250198774
 30
0.0
 11
87.54752637903989
 21
187.0000250198774
 31
0.0
  0
LINE
  5
71E
330
51F
100
AcDbEntity
  8
标注
370
    -2
100
AcDbLine
 10
94.12124685148077
 20
187.0000250198774
 30
0.0
 11
91.52252637903988
 21
187.0000250198774
 31
0.0
  0
SOLID
  5
71F
330
51F
100
AcDbEntity
  8
标注
100
AcDbTrace
 10
84.94880590659901
 20
187.1083583532108
 30
0.0
 11
84.94880590659901
 21
186.8916916865441
 31
0.0
 12
84.298805906599
 22
187.0000250198774
 32
0.0
 13
84.298805906599
 23
187.0000250198774
 33
0.0
  0
SOLID
  5
720
330
51F
100
AcDbEntity
  8
标注
100
AcDbTrace
 10
94.12124685148077
 20
187.1083583532108
 30
0.0
 11
94.12124685148077
 21
186.8916916865441
 31
0.0
 12
94.77124685148078
 22
187.0000250198774
 32
0.0
 13
94.77124685148078
 23
187.0000250198774
 33
0.0
  0
MTEXT
  5
721
330
51F
100
AcDbEntity
  8
标注
100
AcDbMText
 10
89.53502637903989
 20
187.0000250198774
 30
0.0
 40
0.65
 41
0.0
 71
     5
 72
     1
  1
\A1;10 1/2"
 73
     1
 44
1.0
1001
ACAD
1000
MTEXTBEGIN
1070
    73
1070
     1
1070
    44
1040
1.0
1070
    74
1070
     0
1000
MTEXTEND
  0
POINT
  5
722
330
51F
100
AcDbEntity
  8
Defpoints
 62
     0
100
AcDbPoint
 10
84.298805906599
 20
198.1269440614586
 30
0.0
  0
POINT
  5
723
330
51F
100
AcDbEntity
  8
Defpoints
 62
     0
100
AcDbPoint
 10
94.77124685148078
 20
198.1515503606711
 30
0.0
  0
POINT
  5
724
330
51F
100
AcDbEntity
  8
Defpoints
 62
     0
100
AcDbPoint
 10
94.77124685148078
 20
187.0000250198774
 30
0.0
  0
ENDBLK
  5
52B
330
51F
100
AcDbEntity
  8
0
100
AcDbBlockEnd
  0
BLOCK
  5
537
330
52C
100
AcDbEntity
  8
0
100
AcDbBlockBegin
  2
*D47
 70
     1
 10
0.0
 20
0.0
 30
0.0
  3
*D47
  1

  0
LINE
  5
711
330
52C
100
AcDbEntity
  8
标注
370
    -2
100
AcDbLine
 10
82.99171929242572
 20
193.2164322504349
 30
0.0
 11
82.99171929242572
 21
186.7117865246787
 31
0.0
  0
LINE
  5
712
330
52C
100
AcDbEntity
  8
标注
370
    -2
100
AcDbLine
 10
65.27518385935478
 20
193.2164322504349
 30
0.0
 11
65.27518385935478
 21
186.7117865246787
 31
0.0
  0
LINE
  5
713
330
52C
100
AcDbEntity
  8
标注
370
    -2
100
AcDbLine
 10
82.34171929242569
 20
187.0317865246787
 30
0.0
 11
76.28345157589023
 21
187.0317865246787
 31
0.0
  0
LINE
  5
714
330
52C
100
AcDbEntity
  8
标注
370
    -2
100
AcDbLine
 10
65.92518385935479
 20
187.0317865246787
 30
0.0
 11
71.98345157589024
 21
187.0317865246787
 31
0.0
  0
SOLID
  5
715
330
52C
100
AcDbEntity
  8
标注
100
AcDbTrace
 10
82.34171929242569
 20
187.140119858012
 30
0.0
 11
82.34171929242569
 21
186.9234531913454
 31
0.0
 12
82.99171929242572
 22
187.0317865246787
 32
0.0
 13
82.99171929242572
 23
187.0317865246787
 33
0.0
  0
SOLID
  5
716
330
52C
100
AcDbEntity
  8
标注
100
AcDbTrace
 10
65.92518385935479
 20
187.140119858012
 30
0.0
 11
65.92518385935479
 21
186.9234531913454
 31
0.0
 12
65.27518385935478
 22
187.0317865246787
 32
0.0
 13
65.27518385935478
 23
187.0317865246787
 33
0.0
  0
MTEXT
  5
717
330
52C
100
AcDbEntity
  8
标注
100
AcDbMText
 10
74.13345157589025
 20
187.0317865246787
 30
0.0
 40
0.65
 41
0.0
 71
     5
 72
     1
  1
\A1;17 3/4"
 73
     1
 44
1.0
1001
ACAD
1000
MTEXTBEGIN
1070
    73
1070
     1
1070
    44
1040
1.0
1070
    74
1070
     0
1000
MTEXTEND
  0
POINT
  5
718
330
52C
100
AcDbEntity
  8
Defpoints
 62
     0
100
AcDbPoint
 10
82.99171929242572
 20
194.0964322504349
 30
0.0
  0
POINT
  5
719
330
52C
100
AcDbEntity
  8
Defpoints
 62
     0
100
AcDbPoint
 10
65.27518385935478
 20
194.0964322504349
 30
0.0
  0
POINT
  5
71A
330
52C
100
AcDbEntity
  8
Defpoints
 62
     0
100
AcDbPoint
 10
65.27518385935478
 20
187.0317865246787
 30
0.0
  0
ENDBLK
  5
538
330
52C
100
AcDbEntity
  8
0
100
AcDbBlockEnd
  0
BLOCK
  5
544
330
539
100
AcDbEntity
  8
0
100
AcDbBlockBegin
  2
*D48
 70
     1
 10
0.0
 20
0.0
 30
0.0
  3
*D48
  1

  0
LINE
  5
707
330
539
100
AcDbEntity
  8
标注
370
    -2
100
AcDbLine
 10
64.25057756014223
 20
193.2164322504349
 30
0.0
 11
64.25057756014223
 21
184.6028322830472
 31
0.0
  0
LINE
  5
708
330
539
100
AcDbEntity
  8
标注
370
    -2
100
AcDbLine
 10
95.74664055226831
 20
192.4290306756318
 30
0.0
 11
95.74664055226831
 21
184.6028322830472
 31
0.0
  0
LINE
  5
709
330
539
100
AcDbEntity
  8
标注
370
    -2
100
AcDbLine
 10
64.90057756014222
 20
184.9228322830471
 30
0.0
 11
77.95694238953861
 21
184.9228322830471
 31
0.0
  0
LINE
  5
70A
330
539
100
AcDbEntity
  8
标注
370
    -2
100
AcDbLine
 10
95.09664055226831
 20
184.9228322830471
 30
0.0
 11
82.04027572287195
 21
184.9228322830471
 31
0.0
  0
SOLID
  5
70B
330
539
100
AcDbEntity
  8
标注
100
AcDbTrace
 10
64.90057756014222
 20
185.0311656163805
 30
0.0
 11
64.90057756014222
 21
184.8144989497139
 31
0.0
 12
64.25057756014223
 22
184.9228322830471
 32
0.0
 13
64.25057756014223
 23
184.9228322830471
 33
0.0
  0
SOLID
  5
70C
330
539
100
AcDbEntity
  8
标注
100
AcDbTrace
 10
95.09664055226831
 20
185.0311656163805
 30
0.0
 11
95.09664055226831
 21
184.8144989497139
 31
0.0
 12
95.74664055226831
 22
184.9228322830471
 32
0.0
 13
95.74664055226831
 23
184.9228322830471
 33
0.0
  0
MTEXT
  5
70D
330
539
100
AcDbEntity
  8
标注
100
AcDbMText
 10
79.99860905620528
 20
184.9228322830471
 30
0.0
 40
0.65
 41
0.0
 71
     5
 72
     1
  1
\A1;31 1/2"
 73
     1
 44
1.0
1001
ACAD
1000
MTEXTBEGIN
1070
    73
1070
     1
1070
    44
1040
1.0
1070
    74
1070
     0
1000
MTEXTEND
  0
POINT
  5
70E
330
539
100
AcDbEntity
  8
Defpoints
 62
     0
100
AcDbPoint
 10
64.25057756014223
 20
194.0964322504349
 30
0.0
  0
POINT
  5
70F
330
539
100
AcDbEntity
  8
Defpoints
 62
     0
100
AcDbPoint
 10
95.74664055226831
 20
193.3090306756318
 30
0.0
  0
POINT
  5
710
330
539
100
AcDbEntity
  8
Defpoints
 62
     0
100
AcDbPoint
 10
95.74664055226831
 20
184.9228322830471
 30
0.0
  0
ENDBLK
  5
545
330
539
100
AcDbEntity
  8
0
100
AcDbBlockEnd
  0
BLOCK
  5
551
330
546
100
AcDbEntity
  8
0
100
AcDbBlockBegin
  2
*D49
 70
     1
 10
0.0
 20
0.0
 30
0.0
  3
*D49
  1

  0
LINE
  5
6FD
330
546
100
AcDbEntity
  8
标注
370
    -2
100
AcDbLine
 10
73.25345157589038
 20
208.6633613842932
 30
0.0
 11
61.09064011717947
 21
208.6633613842933
 31
0.0
  0
LINE
  5
6FE
330
546
100
AcDbEntity
  8
标注
370
    -2
100
AcDbLine
 10
68.33219173337056
 20
190.1594243764192
 30
0.0
 11
61.09064011717947
 21
190.1594243764192
 31
0.0
  0
LINE
  5
6FF
330
546
100
AcDbEntity
  8
标注
370
    -2
100
AcDbLine
 10
61.41064011717947
 20
208.0133613842932
 30
0.0
 11
61.41064011717947
 21
201.4530595470229
 31
0.0
  0
LINE
  5
700
330
546
100
AcDbEntity
  8
标注
370
    -2
100
AcDbLine
 10
61.41064011717947
 20
190.8094243764191
 30
0.0
 11
61.41064011717947
 21
197.3697262136895
 31
0.0
  0
SOLID
  5
701
330
546
100
AcDbEntity
  8
标注
100
AcDbTrace
 10
61.30230678384614
 20
208.0133613842932
 30
0.0
 11
61.51897345051281
 21
208.0133613842932
 31
0.0
 12
61.41064011717947
 22
208.6633613842933
 32
0.0
 13
61.41064011717947
 23
208.6633613842933
 33
0.0
  0
SOLID
  5
702
330
546
100
AcDbEntity
  8
标注
100
AcDbTrace
 10
61.30230678384613
 20
190.8094243764191
 30
0.0
 11
61.5189734505128
 21
190.8094243764191
 31
0.0
 12
61.41064011717947
 22
190.1594243764192
 32
0.0
 13
61.41064011717947
 23
190.1594243764192
 33
0.0
  0
MTEXT
  5
703
330
546
100
AcDbEntity
  8
标注
100
AcDbMText
 10
61.41064011717944
 20
199.4113928803562
 30
0.0
 40
0.65
 41
0.0
 71
     5
 72
     1
  1
\A1;18 1/2"
 11
0.0000000000000001
 21
1.0
 31
0.0
 73
     1
 44
1.0
1001
ACAD
1000
MTEXTBEGIN
1070
    73
1070
     1
1070
    44
1040
1.0
1070
    74
1070
     0
1000
MTEXTEND
  0
POINT
  5
704
330
546
100
AcDbEntity
  8
Defpoints
 62
     0
100
AcDbPoint
 10
74.13345157589038
 20
208.6633613842932
 30
0.0
  0
POINT
  5
705
330
546
100
AcDbEntity
  8
Defpoints
 62
     0
100
AcDbPoint
 10
69.21219173337056
 20
190.1594243764192
 30
0.0
  0
POINT
  5
706
330
546
100
AcDbEntity
  8
Defpoints
 62
     0
100
AcDbPoint
 10
61.41064011717947
 20
190.1594243764192
 30
0.0
  0
ENDBLK
  5
552
330
546
100
AcDbEntity
  8
0
100
AcDbBlockEnd
  0
BLOCK
  5
55E
330
553
100
AcDbEntity
  8
0
100
AcDbBlockBegin
  2
*D50
 70
     1
 10
0.0
 20
0.0
 30
0.0
  3
*D50
  1

  0
LINE
  5
6F3
330
553
100
AcDbEntity
  8
标注
370
    -2
100
AcDbLine
 10
73.2288452766777
 20
209.6633613842932
 30
0.0
 11
58.67789916953398
 21
209.6633613842932
 31
0.0
  0
LINE
  5
6F4
330
553
100
AcDbEntity
  8
标注
370
    -2
100
AcDbLine
 10
68.307585434158
 20
189.1594243764191
 30
0.0
 11
58.67789916953398
 21
189.1594243764191
 31
0.0
  0
LINE
  5
6F5
330
553
100
AcDbEntity
  8
标注
370
    -2
100
AcDbLine
 10
58.99789916953398
 20
209.0133613842932
 30
0.0
 11
58.99789916953398
 21
201.5072262136895
 31
0.0
  0
LINE
  5
6F6
330
553
100
AcDbEntity
  8
标注
370
    -2
100
AcDbLine
 10
58.99789916953398
 20
189.8094243764191
 30
0.0
 11
58.99789916953398
 21
197.3155595470228
 31
0.0
  0
SOLID
  5
6F7
330
553
100
AcDbEntity
  8
标注
100
AcDbTrace
 10
58.88956583620064
 20
209.0133613842932
 30
0.0
 11
59.10623250286731
 21
209.0133613842932
 31
0.0
 12
58.99789916953398
 22
209.6633613842932
 32
0.0
 13
58.99789916953398
 23
209.6633613842932
 33
0.0
  0
SOLID
  5
6F8
330
553
100
AcDbEntity
  8
标注
100
AcDbTrace
 10
58.88956583620064
 20
189.8094243764191
 30
0.0
 11
59.10623250286731
 21
189.8094243764191
 31
0.0
 12
58.99789916953398
 22
189.1594243764191
 32
0.0
 13
58.99789916953398
 23
189.1594243764191
 33
0.0
  0
MTEXT
  5
6F9
330
553
100
AcDbEntity
  8
标注
100
AcDbMText
 10
58.99789916953395
 20
199.4113928803562
 30
0.0
 40
0.65
 41
0.0
 71
     5
 72
     1
  1
\A1;20 1/2"
 11
0.0000000000000001
 21
1.0
 31
0.0
 73
     1
 44
1.0
1001
ACAD
1000
MTEXTBEGIN
1070
    73
1070
     1
1070
    44
1040
1.0
1070
    74
1070
     0
1000
MTEXTEND
  0
POINT
  5
6FA
330
553
100
AcDbEntity
  8
Defpoints
 62
     0
100
AcDbPoint
 10
74.1088452766777
 20
209.6633613842932
 30
0.0
  0
POINT
  5
6FB
330
553
100
AcDbEntity
  8
Defpoints
 62
     0
100
AcDbPoint
 10
69.18758543415799
 20
189.1594243764191
 30
0.0
  0
POINT
  5
6FC
330
553
100
AcDbEntity
  8
Defpoints
 62
     0
100
AcDbPoint
 10
58.99789916953398
 20
189.1594243764191
 30
0.0
  0
ENDBLK
  5
55F
330
553
100
AcDbEntity
  8
0
100
AcDbBlockEnd
  0
BLOCK
  5
6BC
330
6B2
100
AcDbEntity
  8
0
100
AcDbBlockBegin
  2
*D51
 70
     1
 10
0.0
 20
0.0
 30
0.0
  3
*D51
  1

  0
LINE
  5
739
330
6B2
100
AcDbEntity
  8
标注
370
    -2
100
AcDbLine
 10
63.37057756014234
 20
227.6700136588063
 30
0.0
 11
61.13300464475894
 21
227.6700136588063
 31
0.0
  0
LINE
  5
73A
330
6B2
100
AcDbEntity
  8
标注
370
    -2
100
AcDbLine
 10
71.13138501096234
 20
218.6687615607247
 30
0.0
 11
61.13300464475894
 21
218.6687615607247
 31
0.0
  0
LINE
  5
73B
330
6B2
100
AcDbEntity
  8
标注
370
    -2
100
AcDbLine
 10
61.45300464475894
 20
227.0200136588063
 30
0.0
 11
61.45300464475894
 21
223.8027209430988
 31
0.0
  0
LINE
  5
73C
330
6B2
100
AcDbEntity
  8
标注
370
    -2
100
AcDbLine
 10
61.45300464475894
 20
219.3187615607247
 30
0.0
 11
61.45300464475894
 21
222.5360542764322
 31
0.0
  0
SOLID
  5
73D
330
6B2
100
AcDbEntity
  8
标注
100
AcDbTrace
 10
61.3446713114256
 20
227.0200136588063
 30
0.0
 11
61.56133797809228
 21
227.0200136588063
 31
0.0
 12
61.45300464475894
 22
227.6700136588063
 32
0.0
 13
61.45300464475894
 23
227.6700136588063
 33
0.0
  0
SOLID
  5
73E
330
6B2
100
AcDbEntity
  8
标注
100
AcDbTrace
 10
61.3446713114256
 20
219.3187615607247
 30
0.0
 11
61.56133797809228
 21
219.3187615607247
 31
0.0
 12
61.45300464475894
 22
218.6687615607247
 32
0.0
 13
61.45300464475894
 23
218.6687615607247
 33
0.0
  0
MTEXT
  5
73F
330
6B2
100
AcDbEntity
  8
标注
100
AcDbMText
 10
61.4530046447589
 20
223.1693876097655
 30
0.0
 40
0.65
 41
0.0
 71
     5
 72
     1
  1
\A1;9"
 11
0.0000000000000001
 21
1.0
 31
0.0
 73
     1
 44
1.0
1001
ACAD
1000
MTEXTBEGIN
1070
    73
1070
     1
1070
    44
1040
1.0
1070
    74
1070
     0
1000
MTEXTEND
  0
POINT
  5
740
330
6B2
100
AcDbEntity
  8
Defpoints
 62
     0
100
AcDbPoint
 10
64.25057756014236
 20
227.6700136588063
 30
0.0
  0
POINT
  5
741
330
6B2
100
AcDbEntity
  8
Defpoints
 62
     0
100
AcDbPoint
 10
72.01138501096234
 20
218.6687615607247
 30
0.0
  0
POINT
  5
742
330
6B2
100
AcDbEntity
  8
Defpoints
 62
     0
100
AcDbPoint
 10
61.45300464475894
 20
218.6687615607247
 30
0.0
  0
ENDBLK
  5
6BD
330
6B2
100
AcDbEntity
  8
0
100
AcDbBlockEnd
  0
BLOCK
  5
76B
330
76A
100
AcDbEntity
  8
0
100
AcDbBlockBegin
  2
*D52
 70
     1
 10
0.0
 20
0.0
 30
0.0
  3
*D52
  1

  0
LINE
  5
76C
330
76A
100
AcDbEntity
  8
标注
370
    -2
100
AcDbLine
 10
90.4150263790399
 20
206.1436763449231
 30
0.0
 11
98.80269840832944
 21
206.1436763449231
 31
0.0
  0
LINE
  5
76D
330
76A
100
AcDbEntity
  8
标注
370
    -2
100
AcDbLine
 10
90.41502637903979
 20
190.1594243764192
 30
0.0
 11
98.80269840832944
 21
190.1594243764192
 31
0.0
  0
LINE
  5
76E
330
76A
100
AcDbEntity
  8
标注
370
    -2
100
AcDbLine
 10
98.48269840832942
 20
205.4936763449231
 30
0.0
 11
98.48269840832942
 21
199.0015503606711
 31
0.0
  0
LINE
  5
76F
330
76A
100
AcDbEntity
  8
标注
370
    -2
100
AcDbLine
 10
98.48269840832942
 20
190.8094243764191
 30
0.0
 11
98.48269840832942
 21
197.3015503606711
 31
0.0
  0
SOLID
  5
770
330
76A
100
AcDbEntity
  8
标注
100
AcDbTrace
 10
98.3743650749961
 20
205.4936763449231
 30
0.0
 11
98.59103174166278
 21
205.4936763449231
 31
0.0
 12
98.48269840832942
 22
206.1436763449231
 32
0.0
 13
98.48269840832942
 23
206.1436763449231
 33
0.0
  0
SOLID
  5
771
330
76A
100
AcDbEntity
  8
标注
100
AcDbTrace
 10
98.3743650749961
 20
190.8094243764191
 30
0.0
 11
98.59103174166278
 21
190.8094243764191
 31
0.0
 12
98.48269840832942
 22
190.1594243764192
 32
0.0
 13
98.48269840832942
 23
190.1594243764192
 33
0.0
  0
MTEXT
  5
772
330
76A
100
AcDbEntity
  8
标注
100
AcDbMText
 10
98.48269840832941
 20
198.1515503606711
 30
0.0
 40
0.65
 41
0.0
 71
     5
 72
     1
  1
\A1;16"
 11
0.0000000000000001
 21
1.0
 31
0.0
 73
     1
 44
1.0
1001
ACAD
1000
MTEXTBEGIN
1070
    73
1070
     1
1070
    44
1040
1.0
1070
    74
1070
     0
1000
MTEXTEND
  0
POINT
  5
773
330
76A
100
AcDbEntity
  8
Defpoints
 62
     0
100
AcDbPoint
 10
89.53502637903989
 20
206.1436763449231
 30
0.0
  0
POINT
  5
774
330
76A
100
AcDbEntity
  8
Defpoints
 62
     0
100
AcDbPoint
 10
89.53502637903978
 20
190.1594243764192
 30
0.0
  0
POINT
  5
775
330
76A
100
AcDbEntity
  8
Defpoints
 62
     0
100
AcDbPoint
 10
98.48269840832942
 20
190.1594243764192
 30
0.0
  0
ENDBLK
  5
776
330
76A
100
AcDbEntity
  8
0
100
AcDbBlockEnd
  0
BLOCK
  5
778
330
777
100
AcDbEntity
  8
0
100
AcDbBlockBegin
  2
*D53
 70
     1
 10
0.0
 20
0.0
 30
0.0
  3
*D53
  1

  0
LINE
  5
779
330
777
100
AcDbEntity
  8
标注
370
    -2
100
AcDbLine
 10
92.47703425305564
 20
207.1436763449231
 30
0.0
 11
101.4070415025555
 21
207.1436763449231
 31
0.0
  0
LINE
  5
77A
330
777
100
AcDbEntity
  8
标注
370
    -2
100
AcDbLine
 10
92.47703425305564
 20
189.1594243764192
 30
0.0
 11
101.4070415025555
 21
189.1594243764192
 31
0.0
  0
LINE
  5
77B
330
777
100
AcDbEntity
  8
标注
370
    -2
100
AcDbLine
 10
101.0870415025555
 20
206.4936763449231
 30
0.0
 11
101.0870415025555
 21
199.0015503606711
 31
0.0
  0
LINE
  5
77C
330
777
100
AcDbEntity
  8
标注
370
    -2
100
AcDbLine
 10
101.0870415025555
 20
189.8094243764191
 30
0.0
 11
101.0870415025555
 21
197.3015503606712
 31
0.0
  0
SOLID
  5
77D
330
777
100
AcDbEntity
  8
标注
100
AcDbTrace
 10
100.9787081692221
 20
206.4936763449231
 30
0.0
 11
101.1953748358888
 21
206.4936763449231
 31
0.0
 12
101.0870415025555
 22
207.1436763449231
 32
0.0
 13
101.0870415025555
 23
207.1436763449231
 33
0.0
  0
SOLID
  5
77E
330
777
100
AcDbEntity
  8
标注
100
AcDbTrace
 10
100.9787081692221
 20
189.8094243764191
 30
0.0
 11
101.1953748358888
 21
189.8094243764191
 31
0.0
 12
101.0870415025555
 22
189.1594243764192
 32
0.0
 13
101.0870415025555
 23
189.1594243764192
 33
0.0
  0
MTEXT
  5
77F
330
777
100
AcDbEntity
  8
标注
100
AcDbMText
 10
101.0870415025554
 20
198.1515503606712
 30
0.0
 40
0.65
 41
0.0
 71
     5
 72
     1
  1
\A1;18"
 11
0.0000000000000001
 21
1.0
 31
0.0
 73
     1
 44
1.0
1001
ACAD
1000
MTEXTBEGIN
1070
    73
1070
     1
1070
    44
1040
1.0
1070
    74
1070
     0
1000
MTEXTEND
  0
POINT
  5
780
330
777
100
AcDbEntity
  8
Defpoints
 62
     0
100
AcDbPoint
 10
91.59703425305565
 20
207.1436763449231
 30
0.0
  0
POINT
  5
781
330
777
100
AcDbEntity
  8
Defpoints
 62
     0
100
AcDbPoint
 10
91.59703425305565
 20
189.1594243764192
 30
0.0
  0
POINT
  5
782
330
777
100
AcDbEntity
  8
Defpoints
 62
     0
100
AcDbPoint
 10
101.0870415025555
 20
189.1594243764192
 30
0.0
  0
ENDBLK
  5
783
330
777
100
AcDbEntity
  8
0
100
AcDbBlockEnd
  0
BLOCK
  5
785
330
784
100
AcDbEntity
  8
0
100
AcDbBlockBegin
  2
*D54
 70
     1
 10
0.0
 20
0.0
 30
0.0
  3
*D54
  1

  0
LINE
  5
786
330
784
100
AcDbEntity
  8
标注
370
    -2
100
AcDbLine
 10
84.298805906599
 20
197.2469440614585
 30
0.0
 11
84.298805906599
 21
186.6800250198774
 31
0.0
  0
LINE
  5
787
330
784
100
AcDbEntity
  8
标注
370
    -2
100
AcDbLine
 10
94.77124685148078
 20
197.2715503606711
 30
0.0
 11
94.77124685148078
 21
186.6800250198774
 31
0.0
  0
LINE
  5
788
330
784
100
AcDbEntity
  8
标注
370
    -2
100
AcDbLine
 10
84.94880590659901
 20
187.0000250198774
 30
0.0
 11
87.54752637903989
 21
187.0000250198774
 31
0.0
  0
LINE
  5
789
330
784
100
AcDbEntity
  8
标注
370
    -2
100
AcDbLine
 10
94.12124685148077
 20
187.0000250198774
 30
0.0
 11
91.52252637903988
 21
187.0000250198774
 31
0.0
  0
SOLID
  5
78A
330
784
100
AcDbEntity
  8
标注
100
AcDbTrace
 10
84.94880590659901
 20
187.1083583532108
 30
0.0
 11
84.94880590659901
 21
186.8916916865441
 31
0.0
 12
84.298805906599
 22
187.0000250198774
 32
0.0
 13
84.298805906599
 23
187.0000250198774
 33
0.0
  0
SOLID
  5
78B
330
784
100
AcDbEntity
  8
标注
100
AcDbTrace
 10
94.12124685148077
 20
187.1083583532108
 30
0.0
 11
94.12124685148077
 21
186.8916916865441
 31
0.0
 12
94.77124685148078
 22
187.0000250198774
 32
0.0
 13
94.77124685148078
 23
187.0000250198774
 33
0.0
  0
MTEXT
  5
78C
330
784
100
AcDbEntity
  8
标注
100
AcDbMText
 10
89.53502637903989
 20
187.0000250198774
 30
0.0
 40
0.65
 41
0.0
 71
     5
 72
     1
  1
\A1;10 1/2"
 73
     1
 44
1.0
1001
ACAD
1000
MTEXTBEGIN
1070
    73
1070
     1
1070
    44
1040
1.0
1070
    74
1070
     0
1000
MTEXTEND
  0
POINT
  5
78D
330
784
100
AcDbEntity
  8
Defpoints
 62
     0
100
AcDbPoint
 10
84.298805906599
 20
198.1269440614586
 30
0.0
  0
POINT
  5
78E
330
784
100
AcDbEntity
  8
Defpoints
 62
     0
100
AcDbPoint
 10
94.77124685148078
 20
198.1515503606711
 30
0.0
  0
POINT
  5
78F
330
784
100
AcDbEntity
  8
Defpoints
 62
     0
100
AcDbPoint
 10
94.77124685148078
 20
187.0000250198774
 30
0.0
  0
ENDBLK
  5
790
330
784
100
AcDbEntity
  8
0
100
AcDbBlockEnd
  0
BLOCK
  5
792
330
791
100
AcDbEntity
  8
0
100
AcDbBlockBegin
  2
*D55
 70
     1
 10
0.0
 20
0.0
 30
0.0
  3
*D55
  1

  0
LINE
  5
793
330
791
100
AcDbEntity
  8
标注
370
    -2
100
AcDbLine
 10
82.99171929242572
 20
193.2164322504349
 30
0.0
 11
82.99171929242572
 21
186.7117865246787
 31
0.0
  0
LINE
  5
794
330
791
100
AcDbEntity
  8
标注
370
    -2
100
AcDbLine
 10
65.27518385935478
 20
193.2164322504349
 30
0.0
 11
65.27518385935478
 21
186.7117865246787
 31
0.0
  0
LINE
  5
795
330
791
100
AcDbEntity
  8
标注
370
    -2
100
AcDbLine
 10
82.34171929242569
 20
187.0317865246787
 30
0.0
 11
76.28345157589023
 21
187.0317865246787
 31
0.0
  0
LINE
  5
796
330
791
100
AcDbEntity
  8
标注
370
    -2
100
AcDbLine
 10
65.92518385935479
 20
187.0317865246787
 30
0.0
 11
71.98345157589024
 21
187.0317865246787
 31
0.0
  0
SOLID
  5
797
330
791
100
AcDbEntity
  8
标注
100
AcDbTrace
 10
82.34171929242569
 20
187.140119858012
 30
0.0
 11
82.34171929242569
 21
186.9234531913454
 31
0.0
 12
82.99171929242572
 22
187.0317865246787
 32
0.0
 13
82.99171929242572
 23
187.0317865246787
 33
0.0
  0
SOLID
  5
798
330
791
100
AcDbEntity
  8
标注
100
AcDbTrace
 10
65.92518385935479
 20
187.140119858012
 30
0.0
 11
65.92518385935479
 21
186.9234531913454
 31
0.0
 12
65.27518385935478
 22
187.0317865246787
 32
0.0
 13
65.27518385935478
 23
187.0317865246787
 33
0.0
  0
MTEXT
  5
799
330
791
100
AcDbEntity
  8
标注
100
AcDbMText
 10
74.13345157589025
 20
187.0317865246787
 30
0.0
 40
0.65
 41
0.0
 71
     5
 72
     1
  1
\A1;17 3/4"
 73
     1
 44
1.0
1001
ACAD
1000
MTEXTBEGIN
1070
    73
1070
     1
1070
    44
1040
1.0
1070
    74
1070
     0
1000
MTEXTEND
  0
POINT
  5
79A
330
791
100
AcDbEntity
  8
Defpoints
 62
     0
100
AcDbPoint
 10
82.99171929242572
 20
194.0964322504349
 30
0.0
  0
POINT
  5
79B
330
791
100
AcDbEntity
  8
Defpoints
 62
     0
100
AcDbPoint
 10
65.27518385935478
 20
194.0964322504349
 30
0.0
  0
POINT
  5
79C
330
791
100
AcDbEntity
  8
Defpoints
 62
     0
100
AcDbPoint
 10
65.27518385935478
 20
187.0317865246787
 30
0.0
  0
ENDBLK
  5
79D
330
791
100
AcDbEntity
  8
0
100
AcDbBlockEnd
  0
BLOCK
  5
79F
330
79E
100
AcDbEntity
  8
0
100
AcDbBlockBegin
  2
*D56
 70
     1
 10
0.0
 20
0.0
 30
0.0
  3
*D56
  1

  0
LINE
  5
7A0
330
79E
100
AcDbEntity
  8
标注
370
    -2
100
AcDbLine
 10
64.25057756014223
 20
193.2164322504349
 30
0.0
 11
64.25057756014223
 21
184.6028322830472
 31
0.0
  0
LINE
  5
7A1
330
79E
100
AcDbEntity
  8
标注
370
    -2
100
AcDbLine
 10
95.74664055226831
 20
192.4290306756318
 30
0.0
 11
95.74664055226831
 21
184.6028322830472
 31
0.0
  0
LINE
  5
7A2
330
79E
100
AcDbEntity
  8
标注
370
    -2
100
AcDbLine
 10
64.90057756014222
 20
184.9228322830471
 30
0.0
 11
77.95694238953861
 21
184.9228322830471
 31
0.0
  0
LINE
  5
7A3
330
79E
100
AcDbEntity
  8
标注
370
    -2
100
AcDbLine
 10
95.09664055226831
 20
184.9228322830471
 30
0.0
 11
82.04027572287195
 21
184.9228322830471
 31
0.0
  0
SOLID
  5
7A4
330
79E
100
AcDbEntity
  8
标注
100
AcDbTrace
 10
64.90057756014222
 20
185.0311656163805
 30
0.0
 11
64.90057756014222
 21
184.8144989497139
 31
0.0
 12
64.25057756014223
 22
184.9228322830471
 32
0.0
 13
64.25057756014223
 23
184.9228322830471
 33
0.0
  0
SOLID
  5
7A5
330
79E
100
AcDbEntity
  8
标注
100
AcDbTrace
 10
95.09664055226831
 20
185.0311656163805
 30
0.0
 11
95.09664055226831
 21
184.8144989497139
 31
0.0
 12
95.74664055226831
 22
184.9228322830471
 32
0.0
 13
95.74664055226831
 23
184.9228322830471
 33
0.0
  0
MTEXT
  5
7A6
330
79E
100
AcDbEntity
  8
标注
100
AcDbMText
 10
79.99860905620528
 20
184.9228322830471
 30
0.0
 40
0.65
 41
0.0
 71
     5
 72
     1
  1
\A1;31 1/2"
 73
     1
 44
1.0
1001
ACAD
1000
MTEXTBEGIN
1070
    73
1070
     1
1070
    44
1040
1.0
1070
    74
1070
     0
1000
MTEXTEND
  0
POINT
  5
7A7
330
79E
100
AcDbEntity
  8
Defpoints
 62
     0
100
AcDbPoint
 10
64.25057756014223
 20
194.0964322504349
 30
0.0
  0
POINT
  5
7A8
330
79E
100
AcDbEntity
  8
Defpoints
 62
     0
100
AcDbPoint
 10
95.74664055226831
 20
193.3090306756318
 30
0.0
  0
POINT
  5
7A9
330
79E
100
AcDbEntity
  8
Defpoints
 62
     0
100
AcDbPoint
 10
95.74664055226831
 20
184.9228322830471
 30
0.0
  0
ENDBLK
  5
7AA
330
79E
100
AcDbEntity
  8
0
100
AcDbBlockEnd
  0
BLOCK
  5
7AC
330
7AB
100
AcDbEntity
  8
0
100
AcDbBlockBegin
  2
*D57
 70
     1
 10
0.0
 20
0.0
 30
0.0
  3
*D57
  1

  0
LINE
  5
7AD
330
7AB
100
AcDbEntity
  8
标注
370
    -2
100
AcDbLine
 10
73.25345157589038
 20
208.6633613842932
 30
0.0
 11
61.09064011717947
 21
208.6633613842933
 31
0.0
  0
LINE
  5
7AE
330
7AB
100
AcDbEntity
  8
标注
370
    -2
100
AcDbLine
 10
68.33219173337056
 20
190.1594243764192
 30
0.0
 11
61.09064011717947
 21
190.1594243764192
 31
0.0
  0
LINE
  5
7AF
330
7AB
100
AcDbEntity
  8
标注
370
    -2
100
AcDbLine
 10
61.41064011717947
 20
208.0133613842932
 30
0.0
 11
61.41064011717947
 21
201.4530595470229
 31
0.0
  0
LINE
  5
7B0
330
7AB
100
AcDbEntity
  8
标注
370
    -2
100
AcDbLine
 10
61.41064011717947
 20
190.8094243764191
 30
0.0
 11
61.41064011717947
 21
197.3697262136895
 31
0.0
  0
SOLID
  5
7B1
330
7AB
100
AcDbEntity
  8
标注
100
AcDbTrace
 10
61.30230678384614
 20
208.0133613842932
 30
0.0
 11
61.51897345051281
 21
208.0133613842932
 31
0.0
 12
61.41064011717947
 22
208.6633613842933
 32
0.0
 13
61.41064011717947
 23
208.6633613842933
 33
0.0
  0
SOLID
  5
7B2
330
7AB
100
AcDbEntity
  8
标注
100
AcDbTrace
 10
61.30230678384613
 20
190.8094243764191
 30
0.0
 11
61.5189734505128
 21
190.8094243764191
 31
0.0
 12
61.41064011717947
 22
190.1594243764192
 32
0.0
 13
61.41064011717947
 23
190.1594243764192
 33
0.0
  0
MTEXT
  5
7B3
330
7AB
100
AcDbEntity
  8
标注
100
AcDbMText
 10
61.41064011717944
 20
199.4113928803562
 30
0.0
 40
0.65
 41
0.0
 71
     5
 72
     1
  1
\A1;18 1/2"
 11
0.0000000000000001
 21
1.0
 31
0.0
 73
     1
 44
1.0
1001
ACAD
1000
MTEXTBEGIN
1070
    73
1070
     1
1070
    44
1040
1.0
1070
    74
1070
     0
1000
MTEXTEND
  0
POINT
  5
7B4
330
7AB
100
AcDbEntity
  8
Defpoints
 62
     0
100
AcDbPoint
 10
74.13345157589038
 20
208.6633613842932
 30
0.0
  0
POINT
  5
7B5
330
7AB
100
AcDbEntity
  8
Defpoints
 62
     0
100
AcDbPoint
 10
69.21219173337056
 20
190.1594243764192
 30
0.0
  0
POINT
  5
7B6
330
7AB
100
AcDbEntity
  8
Defpoints
 62
     0
100
AcDbPoint
 10
61.41064011717947
 20
190.1594243764192
 30
0.0
  0
ENDBLK
  5
7B7
330
7AB
100
AcDbEntity
  8
0
100
AcDbBlockEnd
  0
BLOCK
  5
7B9
330
7B8
100
AcDbEntity
  8
0
100
AcDbBlockBegin
  2
*D58
 70
     1
 10
0.0
 20
0.0
 30
0.0
  3
*D58
  1

  0
LINE
  5
7BA
330
7B8
100
AcDbEntity
  8
标注
370
    -2
100
AcDbLine
 10
73.2288452766777
 20
209.6633613842932
 30
0.0
 11
58.67789916953398
 21
209.6633613842932
 31
0.0
  0
LINE
  5
7BB
330
7B8
100
AcDbEntity
  8
标注
370
    -2
100
AcDbLine
 10
68.307585434158
 20
189.1594243764191
 30
0.0
 11
58.67789916953398
 21
189.1594243764191
 31
0.0
  0
LINE
  5
7BC
330
7B8
100
AcDbEntity
  8
标注
370
    -2
100
AcDbLine
 10
58.99789916953398
 20
209.0133613842932
 30
0.0
 11
58.99789916953398
 21
201.5072262136895
 31
0.0
  0
LINE
  5
7BD
330
7B8
100
AcDbEntity
  8
标注
370
    -2
100
AcDbLine
 10
58.99789916953398
 20
189.8094243764191
 30
0.0
 11
58.99789916953398
 21
197.3155595470228
 31
0.0
  0
SOLID
  5
7BE
330
7B8
100
AcDbEntity
  8
标注
100
AcDbTrace
 10
58.88956583620064
 20
209.0133613842932
 30
0.0
 11
59.10623250286731
 21
209.0133613842932
 31
0.0
 12
58.99789916953398
 22
209.6633613842932
 32
0.0
 13
58.99789916953398
 23
209.6633613842932
 33
0.0
  0
SOLID
  5
7BF
330
7B8
100
AcDbEntity
  8
标注
100
AcDbTrace
 10
58.88956583620064
 20
189.8094243764191
 30
0.0
 11
59.10623250286731
 21
189.8094243764191
 31
0.0
 12
58.99789916953398
 22
189.1594243764191
 32
0.0
 13
58.99789916953398
 23
189.1594243764191
 33
0.0
  0
MTEXT
  5
7C0
330
7B8
100
AcDbEntity
  8
标注
100
AcDbMText
 10
58.99789916953395
 20
199.4113928803562
 30
0.0
 40
0.65
 41
0.0
 71
     5
 72
     1
  1
\A1;20 1/2"
 11
0.0000000000000001
 21
1.0
 31
0.0
 73
     1
 44
1.0
1001
ACAD
1000
MTEXTBEGIN
1070
    73
1070
     1
1070
    44
1040
1.0
1070
    74
1070
     0
1000
MTEXTEND
  0
POINT
  5
7C1
330
7B8
100
AcDbEntity
  8
Defpoints
 62
     0
100
AcDbPoint
 10
74.1088452766777
 20
209.6633613842932
 30
0.0
  0
POINT
  5
7C2
330
7B8
100
AcDbEntity
  8
Defpoints
 62
     0
100
AcDbPoint
 10
69.18758543415799
 20
189.1594243764191
 30
0.0
  0
POINT
  5
7C3
330
7B8
100
AcDbEntity
  8
Defpoints
 62
     0
100
AcDbPoint
 10
58.99789916953398
 20
189.1594243764191
 30
0.0
  0
ENDBLK
  5
7C4
330
7B8
100
AcDbEntity
  8
0
100
AcDbBlockEnd
  0
BLOCK
  5
818
330
80D
100
AcDbEntity
  8
0
100
AcDbBlockBegin
  2
*D59
 70
     1
 10
0.0
 20
0.0
 30
0.0
  3
*D59
  1

  0
LINE
  5
80E
330
80D
100
AcDbEntity
  8
标注
370
    -2
100
AcDbLine
 10
73.18041875805795
 20
169.3799854564986
 30
0.0
 11
58.62947265091422
 21
169.3799854564986
 31
0.0
  0
LINE
  5
80F
330
80D
100
AcDbEntity
  8
标注
370
    -2
100
AcDbLine
 10
68.25915891553825
 20
148.8760484486245
 30
0.0
 11
58.62947265091422
 21
148.8760484486245
 31
0.0
  0
LINE
  5
810
330
80D
100
AcDbEntity
  8
标注
370
    -2
100
AcDbLine
 10
58.94947265091422
 20
168.7299854564986
 30
0.0
 11
58.94947265091422
 21
161.2238502858948
 31
0.0
  0
LINE
  5
811
330
80D
100
AcDbEntity
  8
标注
370
    -2
100
AcDbLine
 10
58.94947265091422
 20
149.5260484486245
 30
0.0
 11
58.94947265091422
 21
157.0321836192282
 31
0.0
  0
SOLID
  5
812
330
80D
100
AcDbEntity
  8
标注
100
AcDbTrace
 10
58.84113931758089
 20
168.7299854564986
 30
0.0
 11
59.05780598424756
 21
168.7299854564986
 31
0.0
 12
58.94947265091422
 22
169.3799854564986
 32
0.0
 13
58.94947265091422
 23
169.3799854564986
 33
0.0
  0
SOLID
  5
813
330
80D
100
AcDbEntity
  8
标注
100
AcDbTrace
 10
58.84113931758089
 20
149.5260484486245
 30
0.0
 11
59.05780598424756
 21
149.5260484486245
 31
0.0
 12
58.94947265091422
 22
148.8760484486245
 32
0.0
 13
58.94947265091422
 23
148.8760484486245
 33
0.0
  0
MTEXT
  5
814
330
80D
100
AcDbEntity
  8
标注
100
AcDbMText
 10
58.9494726509142
 20
159.1280169525615
 30
0.0
 40
0.65
 41
0.0
 71
     5
 72
     1
  1
\A1;20 1/2"
 11
0.0000000000000001
 21
1.0
 31
0.0
 73
     1
 44
1.0
1001
ACAD
1000
MTEXTBEGIN
1070
    73
1070
     1
1070
    44
1040
1.0
1070
    74
1070
     0
1000
MTEXTEND
  0
POINT
  5
815
330
80D
100
AcDbEntity
  8
Defpoints
 62
     0
100
AcDbPoint
 10
74.06041875805796
 20
169.3799854564986
 30
0.0
  0
POINT
  5
816
330
80D
100
AcDbEntity
  8
Defpoints
 62
     0
100
AcDbPoint
 10
69.13915891553824
 20
148.8760484486245
 30
0.0
  0
POINT
  5
817
330
80D
100
AcDbEntity
  8
Defpoints
 62
     0
100
AcDbPoint
 10
58.94947265091422
 20
148.8760484486245
 30
0.0
  0
ENDBLK
  5
819
330
80D
100
AcDbEntity
  8
0
100
AcDbBlockEnd
  0
BLOCK
  5
825
330
81A
100
AcDbEntity
  8
0
100
AcDbBlockBegin
  2
*D60
 70
     1
 10
0.0
 20
0.0
 30
0.0
  3
*D60
  1

  0
LINE
  5
81B
330
81A
100
AcDbEntity
  8
标注
370
    -2
100
AcDbLine
 10
73.20502505727062
 20
168.3799854564986
 30
0.0
 11
61.04221359855971
 21
168.3799854564986
 31
0.0
  0
LINE
  5
81C
330
81A
100
AcDbEntity
  8
标注
370
    -2
100
AcDbLine
 10
68.28376521475083
 20
149.8760484486245
 30
0.0
 11
61.04221359855971
 21
149.8760484486246
 31
0.0
  0
LINE
  5
81D
330
81A
100
AcDbEntity
  8
标注
370
    -2
100
AcDbLine
 10
61.36221359855971
 20
167.7299854564985
 30
0.0
 11
61.36221359855971
 21
161.1696836192282
 31
0.0
  0
LINE
  5
81E
330
81A
100
AcDbEntity
  8
标注
370
    -2
100
AcDbLine
 10
61.36221359855971
 20
150.5260484486246
 30
0.0
 11
61.36221359855971
 21
157.0863502858949
 31
0.0
  0
SOLID
  5
81F
330
81A
100
AcDbEntity
  8
标注
100
AcDbTrace
 10
61.25388026522639
 20
167.7299854564985
 30
0.0
 11
61.47054693189304
 21
167.7299854564985
 31
0.0
 12
61.36221359855971
 22
168.3799854564986
 32
0.0
 13
61.36221359855971
 23
168.3799854564986
 33
0.0
  0
SOLID
  5
820
330
81A
100
AcDbEntity
  8
标注
100
AcDbTrace
 10
61.25388026522639
 20
150.5260484486246
 30
0.0
 11
61.47054693189304
 21
150.5260484486246
 31
0.0
 12
61.36221359855971
 22
149.8760484486246
 32
0.0
 13
61.36221359855971
 23
149.8760484486246
 33
0.0
  0
MTEXT
  5
821
330
81A
100
AcDbEntity
  8
标注
100
AcDbMText
 10
61.36221359855968
 20
159.1280169525616
 30
0.0
 40
0.65
 41
0.0
 71
     5
 72
     1
  1
\A1;18 1/2"
 11
0.0000000000000001
 21
1.0
 31
0.0
 73
     1
 44
1.0
1001
ACAD
1000
MTEXTBEGIN
1070
    73
1070
     1
1070
    44
1040
1.0
1070
    74
1070
     0
1000
MTEXTEND
  0
POINT
  5
822
330
81A
100
AcDbEntity
  8
Defpoints
 62
     0
100
AcDbPoint
 10
74.08502505727063
 20
168.3799854564986
 30
0.0
  0
POINT
  5
823
330
81A
100
AcDbEntity
  8
Defpoints
 62
     0
100
AcDbPoint
 10
69.16376521475081
 20
149.8760484486245
 30
0.0
  0
POINT
  5
824
330
81A
100
AcDbEntity
  8
Defpoints
 62
     0
100
AcDbPoint
 10
61.36221359855971
 20
149.8760484486246
 30
0.0
  0
ENDBLK
  5
826
330
81A
100
AcDbEntity
  8
0
100
AcDbBlockEnd
  0
BLOCK
  5
832
330
827
100
AcDbEntity
  8
0
100
AcDbBlockBegin
  2
*D61
 70
     1
 10
0.0
 20
0.0
 30
0.0
  3
*D61
  1

  0
LINE
  5
828
330
827
100
AcDbEntity
  8
标注
370
    -2
100
AcDbLine
 10
64.20215104152247
 20
152.9330563226403
 30
0.0
 11
64.20215104152247
 21
144.3194563552526
 31
0.0
  0
LINE
  5
829
330
827
100
AcDbEntity
  8
标注
370
    -2
100
AcDbLine
 10
95.69821403364858
 20
152.1456547478371
 30
0.0
 11
95.69821403364858
 21
144.3194563552526
 31
0.0
  0
LINE
  5
82A
330
827
100
AcDbEntity
  8
标注
370
    -2
100
AcDbLine
 10
64.85215104152249
 20
144.6394563552525
 30
0.0
 11
77.90851587091886
 21
144.6394563552525
 31
0.0
  0
LINE
  5
82B
330
827
100
AcDbEntity
  8
标注
370
    -2
100
AcDbLine
 10
95.04821403364855
 20
144.6394563552525
 30
0.0
 11
81.99184920425221
 21
144.6394563552525
 31
0.0
  0
SOLID
  5
82C
330
827
100
AcDbEntity
  8
标注
100
AcDbTrace
 10
64.85215104152249
 20
144.7477896885859
 30
0.0
 11
64.85215104152249
 21
144.5311230219193
 31
0.0
 12
64.20215104152247
 22
144.6394563552525
 32
0.0
 13
64.20215104152247
 23
144.6394563552525
 33
0.0
  0
SOLID
  5
82D
330
827
100
AcDbEntity
  8
标注
100
AcDbTrace
 10
95.04821403364855
 20
144.7477896885859
 30
0.0
 11
95.04821403364855
 21
144.5311230219193
 31
0.0
 12
95.69821403364858
 22
144.6394563552525
 32
0.0
 13
95.69821403364858
 23
144.6394563552525
 33
0.0
  0
MTEXT
  5
82E
330
827
100
AcDbEntity
  8
标注
100
AcDbMText
 10
79.95018253758553
 20
144.6394563552525
 30
0.0
 40
0.65
 41
0.0
 71
     5
 72
     1
  1
\A1;31 1/2"
 73
     1
 44
1.0
1001
ACAD
1000
MTEXTBEGIN
1070
    73
1070
     1
1070
    44
1040
1.0
1070
    74
1070
     0
1000
MTEXTEND
  0
POINT
  5
82F
330
827
100
AcDbEntity
  8
Defpoints
 62
     0
100
AcDbPoint
 10
64.20215104152247
 20
153.8130563226403
 30
0.0
  0
POINT
  5
830
330
827
100
AcDbEntity
  8
Defpoints
 62
     0
100
AcDbPoint
 10
95.69821403364858
 20
153.0256547478372
 30
0.0
  0
POINT
  5
831
330
827
100
AcDbEntity
  8
Defpoints
 62
     0
100
AcDbPoint
 10
95.69821403364858
 20
144.6394563552525
 30
0.0
  0
ENDBLK
  5
833
330
827
100
AcDbEntity
  8
0
100
AcDbBlockEnd
  0
BLOCK
  5
83F
330
834
100
AcDbEntity
  8
0
100
AcDbBlockBegin
  2
*D62
 70
     1
 10
0.0
 20
0.0
 30
0.0
  3
*D62
  1

  0
LINE
  5
868
330
834
100
AcDbEntity
  8
标注
370
    -2
100
AcDbLine
 10
82.94329277380596
 20
152.9330563226403
 30
0.0
 11
82.94329277380596
 21
146.4284105968841
 31
0.0
  0
LINE
  5
869
330
834
100
AcDbEntity
  8
标注
370
    -2
100
AcDbLine
 10
65.22675734073503
 20
152.9330563226403
 30
0.0
 11
65.22675734073503
 21
146.4284105968841
 31
0.0
  0
LINE
  5
86A
330
834
100
AcDbEntity
  8
标注
370
    -2
100
AcDbLine
 10
82.29329277380596
 20
146.7484105968841
 30
0.0
 11
76.2350250572705
 21
146.7484105968841
 31
0.0
  0
LINE
  5
86B
330
834
100
AcDbEntity
  8
标注
370
    -2
100
AcDbLine
 10
65.87675734073504
 20
146.7484105968841
 30
0.0
 11
71.9350250572705
 21
146.7484105968841
 31
0.0
  0
SOLID
  5
86C
330
834
100
AcDbEntity
  8
标注
100
AcDbTrace
 10
82.29329277380596
 20
146.8567439302174
 30
0.0
 11
82.29329277380596
 21
146.6400772635508
 31
0.0
 12
82.94329277380596
 22
146.7484105968841
 32
0.0
 13
82.94329277380596
 23
146.7484105968841
 33
0.0
  0
SOLID
  5
86D
330
834
100
AcDbEntity
  8
标注
100
AcDbTrace
 10
65.87675734073504
 20
146.8567439302174
 30
0.0
 11
65.87675734073504
 21
146.6400772635508
 31
0.0
 12
65.22675734073503
 22
146.7484105968841
 32
0.0
 13
65.22675734073503
 23
146.7484105968841
 33
0.0
  0
MTEXT
  5
86E
330
834
100
AcDbEntity
  8
标注
100
AcDbMText
 10
74.08502505727049
 20
146.7484105968841
 30
0.0
 40
0.65
 41
0.0
 71
     5
 72
     1
  1
\A1;17 3/4"
 73
     1
 44
1.0
1001
ACAD
1000
MTEXTBEGIN
1070
    73
1070
     1
1070
    44
1040
1.0
1070
    74
1070
     0
1000
MTEXTEND
  0
POINT
  5
86F
330
834
100
AcDbEntity
  8
Defpoints
 62
     0
100
AcDbPoint
 10
82.94329277380596
 20
153.8130563226403
 30
0.0
  0
POINT
  5
870
330
834
100
AcDbEntity
  8
Defpoints
 62
     0
100
AcDbPoint
 10
65.22675734073503
 20
153.8130563226403
 30
0.0
  0
POINT
  5
871
330
834
100
AcDbEntity
  8
Defpoints
 62
     0
100
AcDbPoint
 10
65.22675734073503
 20
146.7484105968841
 30
0.0
  0
ENDBLK
  5
840
330
834
100
AcDbEntity
  8
0
100
AcDbBlockEnd
  0
BLOCK
  5
84C
330
841
100
AcDbEntity
  8
0
100
AcDbBlockBegin
  2
*D63
 70
     1
 10
0.0
 20
0.0
 30
0.0
  3
*D63
  1

  0
LINE
  5
842
330
841
100
AcDbEntity
  8
标注
370
    -2
100
AcDbLine
 10
84.25037938797926
 20
156.9635681336639
 30
0.0
 11
84.25037938797926
 21
146.3966490920828
 31
0.0
  0
LINE
  5
843
330
841
100
AcDbEntity
  8
标注
370
    -2
100
AcDbLine
 10
94.72282033286104
 20
156.9881744328765
 30
0.0
 11
94.72282033286104
 21
146.3966490920828
 31
0.0
  0
LINE
  5
844
330
841
100
AcDbEntity
  8
标注
370
    -2
100
AcDbLine
 10
84.90037938797925
 20
146.7166490920828
 30
0.0
 11
87.49909986042013
 21
146.7166490920828
 31
0.0
  0
LINE
  5
845
330
841
100
AcDbEntity
  8
标注
370
    -2
100
AcDbLine
 10
94.07282033286104
 20
146.7166490920828
 30
0.0
 11
91.47409986042012
 21
146.7166490920828
 31
0.0
  0
SOLID
  5
846
330
841
100
AcDbEntity
  8
标注
100
AcDbTrace
 10
84.90037938797925
 20
146.8249824254161
 30
0.0
 11
84.90037938797925
 21
146.6083157587495
 31
0.0
 12
84.25037938797926
 22
146.7166490920828
 32
0.0
 13
84.25037938797926
 23
146.7166490920828
 33
0.0
  0
SOLID
  5
847
330
841
100
AcDbEntity
  8
标注
100
AcDbTrace
 10
94.07282033286104
 20
146.8249824254161
 30
0.0
 11
94.07282033286104
 21
146.6083157587495
 31
0.0
 12
94.72282033286104
 22
146.7166490920828
 32
0.0
 13
94.72282033286104
 23
146.7166490920828
 33
0.0
  0
MTEXT
  5
848
330
841
100
AcDbEntity
  8
标注
100
AcDbMText
 10
89.48659986042015
 20
146.7166490920828
 30
0.0
 40
0.65
 41
0.0
 71
     5
 72
     1
  1
\A1;10 1/2"
 73
     1
 44
1.0
1001
ACAD
1000
MTEXTBEGIN
1070
    73
1070
     1
1070
    44
1040
1.0
1070
    74
1070
     0
1000
MTEXTEND
  0
POINT
  5
849
330
841
100
AcDbEntity
  8
Defpoints
 62
     0
100
AcDbPoint
 10
84.25037938797926
 20
157.8435681336639
 30
0.0
  0
POINT
  5
84A
330
841
100
AcDbEntity
  8
Defpoints
 62
     0
100
AcDbPoint
 10
94.72282033286104
 20
157.8681744328765
 30
0.0
  0
POINT
  5
84B
330
841
100
AcDbEntity
  8
Defpoints
 62
     0
100
AcDbPoint
 10
94.72282033286104
 20
146.7166490920828
 30
0.0
  0
ENDBLK
  5
84D
330
841
100
AcDbEntity
  8
0
100
AcDbBlockEnd
  0
BLOCK
  5
859
330
84E
100
AcDbEntity
  8
0
100
AcDbBlockBegin
  2
*D64
 70
     1
 10
0.0
 20
0.0
 30
0.0
  3
*D64
  1

  0
LINE
  5
84F
330
84E
100
AcDbEntity
  8
标注
370
    -2
100
AcDbLine
 10
92.4286077344359
 20
166.8603004171285
 30
0.0
 11
101.3586149839357
 21
166.8603004171285
 31
0.0
  0
LINE
  5
850
330
84E
100
AcDbEntity
  8
标注
370
    -2
100
AcDbLine
 10
92.4286077344359
 20
148.8760484486245
 30
0.0
 11
101.3586149839357
 21
148.8760484486245
 31
0.0
  0
LINE
  5
851
330
84E
100
AcDbEntity
  8
标注
370
    -2
100
AcDbLine
 10
101.0386149839358
 20
166.2103004171285
 30
0.0
 11
101.0386149839357
 21
158.7181744328765
 31
0.0
  0
LINE
  5
852
330
84E
100
AcDbEntity
  8
标注
370
    -2
100
AcDbLine
 10
101.0386149839357
 20
149.5260484486245
 30
0.0
 11
101.0386149839357
 21
157.0181744328765
 31
0.0
  0
SOLID
  5
853
330
84E
100
AcDbEntity
  8
标注
100
AcDbTrace
 10
100.9302816506024
 20
166.2103004171285
 30
0.0
 11
101.1469483172691
 21
166.2103004171285
 31
0.0
 12
101.0386149839358
 22
166.8603004171285
 32
0.0
 13
101.0386149839358
 23
166.8603004171285
 33
0.0
  0
SOLID
  5
854
330
84E
100
AcDbEntity
  8
标注
100
AcDbTrace
 10
100.9302816506024
 20
149.5260484486245
 30
0.0
 11
101.1469483172691
 21
149.5260484486245
 31
0.0
 12
101.0386149839357
 22
148.8760484486245
 32
0.0
 13
101.0386149839357
 23
148.8760484486245
 33
0.0
  0
MTEXT
  5
855
330
84E
100
AcDbEntity
  8
标注
100
AcDbMText
 10
101.0386149839357
 20
157.8681744328766
 30
0.0
 40
0.65
 41
0.0
 71
     5
 72
     1
  1
\A1;18"
 11
0.0000000000000001
 21
1.0
 31
0.0
 73
     1
 44
1.0
1001
ACAD
1000
MTEXTBEGIN
1070
    73
1070
     1
1070
    44
1040
1.0
1070
    74
1070
     0
1000
MTEXTEND
  0
POINT
  5
856
330
84E
100
AcDbEntity
  8
Defpoints
 62
     0
100
AcDbPoint
 10
91.54860773443592
 20
166.8603004171285
 30
0.0
  0
POINT
  5
857
330
84E
100
AcDbEntity
  8
Defpoints
 62
     0
100
AcDbPoint
 10
91.54860773443592
 20
148.8760484486245
 30
0.0
  0
POINT
  5
858
330
84E
100
AcDbEntity
  8
Defpoints
 62
     0
100
AcDbPoint
 10
101.0386149839357
 20
148.8760484486245
 30
0.0
  0
ENDBLK
  5
85A
330
84E
100
AcDbEntity
  8
0
100
AcDbBlockEnd
  0
BLOCK
  5
866
330
85B
100
AcDbEntity
  8
0
100
AcDbBlockBegin
  2
*D65
 70
     1
 10
0.0
 20
0.0
 30
0.0
  3
*D65
  1

  0
LINE
  5
872
330
85B
100
AcDbEntity
  8
标注
370
    -2
100
AcDbLine
 10
90.36659986042016
 20
165.8603004171285
 30
0.0
 11
98.75427188970968
 21
165.8603004171285
 31
0.0
  0
LINE
  5
873
330
85B
100
AcDbEntity
  8
标注
370
    -2
100
AcDbLine
 10
90.36659986042005
 20
149.8760484486245
 30
0.0
 11
98.75427188970968
 21
149.8760484486245
 31
0.0
  0
LINE
  5
874
330
85B
100
AcDbEntity
  8
标注
370
    -2
100
AcDbLine
 10
98.43427188970968
 20
165.2103004171284
 30
0.0
 11
98.43427188970968
 21
158.7181744328765
 31
0.0
  0
LINE
  5
875
330
85B
100
AcDbEntity
  8
标注
370
    -2
100
AcDbLine
 10
98.43427188970968
 20
150.5260484486246
 30
0.0
 11
98.43427188970968
 21
157.0181744328765
 31
0.0
  0
SOLID
  5
876
330
85B
100
AcDbEntity
  8
标注
100
AcDbTrace
 10
98.32593855637634
 20
165.2103004171284
 30
0.0
 11
98.54260522304301
 21
165.2103004171284
 31
0.0
 12
98.43427188970968
 22
165.8603004171285
 32
0.0
 13
98.43427188970968
 23
165.8603004171285
 33
0.0
  0
SOLID
  5
877
330
85B
100
AcDbEntity
  8
标注
100
AcDbTrace
 10
98.32593855637631
 20
150.5260484486246
 30
0.0
 11
98.54260522304301
 21
150.5260484486246
 31
0.0
 12
98.43427188970968
 22
149.8760484486245
 32
0.0
 13
98.43427188970968
 23
149.8760484486245
 33
0.0
  0
MTEXT
  5
878
330
85B
100
AcDbEntity
  8
标注
100
AcDbMText
 10
98.43427188970965
 20
157.8681744328765
 30
0.0
 40
0.65
 41
0.0
 71
     5
 72
     1
  1
\A1;16"
 11
0.0000000000000001
 21
1.0
 31
0.0
 73
     1
 44
1.0
1001
ACAD
1000
MTEXTBEGIN
1070
    73
1070
     1
1070
    44
1040
1.0
1070
    74
1070
     0
1000
MTEXTEND
  0
POINT
  5
879
330
85B
100
AcDbEntity
  8
Defpoints
 62
     0
100
AcDbPoint
 10
89.48659986042015
 20
165.8603004171285
 30
0.0
  0
POINT
  5
87A
330
85B
100
AcDbEntity
  8
Defpoints
 62
     0
100
AcDbPoint
 10
89.48659986042006
 20
149.8760484486245
 30
0.0
  0
POINT
  5
87B
330
85B
100
AcDbEntity
  8
Defpoints
 62
     0
100
AcDbPoint
 10
98.43427188970968
 20
149.8760484486245
 30
0.0
  0
ENDBLK
  5
867
330
85B
100
AcDbEntity
  8
0
100
AcDbBlockEnd
  0
BLOCK
  5
928
330
922
100
AcDbEntity
  8
0
100
AcDbBlockBegin
  2
*D66
 70
     1
 10
0.0
 20
0.0
 30
0.0
  3
*D66
  1

  0
LINE
  5
92B
330
922
100
AcDbEntity
  8
标注
370
    -2
100
AcDbLine
 10
68.19295567163314
 20
205.7749621877521
 30
0.0
 11
67.75329913218373
 21
206.2537127776414
 31
0.0
  0
MTEXT
  5
92C
330
922
100
AcDbEntity
  8
标注
100
AcDbMText
 10
69.64720422519665
 20
204.191402544272
 30
0.0
 40
0.65
 41
0.0
 71
     5
 72
     1
  1
\A1;R6 1/4"
 11
0.6763946760760279
 21
-0.7365393690604769
 31
0.0
 73
     1
 44
1.0
1001
ACAD
1000
MTEXTBEGIN
1070
    73
1070
     1
1070
    44
1040
1.0
1070
    74
1070
     0
1000
MTEXTEND
  0
SOLID
  5
92D
330
922
100
AcDbEntity
  8
标注
100
AcDbTrace
 10
67.83309089716526
 20
206.3269888675496
 30
0.0
 11
67.67350736720219
 21
206.1804366877332
 31
0.0
 12
67.3136425927343
 22
206.7324633675307
 32
0.0
 13
67.3136425927343
 23
206.7324633675307
 33
0.0
  0
POINT
  5
92E
330
922
100
AcDbEntity
  8
Defpoints
 62
     0
100
AcDbPoint
 10
67.3136425927343
 20
206.7324633675307
 30
0.0
  0
POINT
  5
92F
330
922
100
AcDbEntity
  8
Defpoints
 62
     0
100
AcDbPoint
 10
71.57439645778007
 20
202.0928452947089
 30
0.0
  0
ENDBLK
  5
929
330
922
100
AcDbEntity
  8
0
100
AcDbBlockEnd
  0
BLOCK
  5
938
330
932
100
AcDbEntity
  8
0
100
AcDbBlockBegin
  2
*D67
 70
     1
 10
0.0
 20
0.0
 30
0.0
  3
*D67
  1

  0
LINE
  5
93B
330
932
100
AcDbEntity
  8
标注
370
    -2
100
AcDbLine
 10
77.74072869044449
 20
206.9809284824648
 30
0.0
 11
77.87701901302511
 21
207.6164793836292
 31
0.0
  0
MTEXT
  5
93C
330
932
100
AcDbEntity
  8
标注
100
AcDbMText
 10
77.24449213130466
 20
204.6668713551484
 30
0.0
 40
0.65
 41
0.0
 71
     5
 72
     1
  1
\A1;R18 1/2"
 11
0.2096774193548422
 21
0.9777706171759783
 31
0.0
 73
     1
 44
1.0
1001
ACAD
1000
MTEXTBEGIN
1070
    73
1070
     1
1070
    44
1040
1.0
1070
    74
1070
     0
1000
MTEXTEND
  0
SOLID
  5
93D
330
932
100
AcDbEntity
  8
标注
100
AcDbTrace
 10
77.77109386283105
 20
207.6391944373926
 30
0.0
 11
77.98294416321919
 21
207.5937643298658
 31
0.0
 12
78.01330933560577
 22
208.2520302847936
 32
0.0
 13
78.01330933560577
 23
208.2520302847936
 33
0.0
  0
POINT
  5
93E
330
932
100
AcDbEntity
  8
Defpoints
 62
     0
100
AcDbPoint
 10
78.01330933560577
 20
208.2520302847936
 30
0.0
  0
POINT
  5
93F
330
932
100
AcDbEntity
  8
Defpoints
 62
     0
100
AcDbPoint
 10
74.13345157589012
 20
190.159424376419
 30
0.0
  0
ENDBLK
  5
939
330
932
100
AcDbEntity
  8
0
100
AcDbBlockEnd
  0
BLOCK
  5
948
330
942
100
AcDbEntity
  8
0
100
AcDbBlockBegin
  2
*D68
 70
     1
 10
0.0
 20
0.0
 30
0.0
  3
*D68
  1

  0
LINE
  5
94B
330
942
100
AcDbEntity
  8
标注
370
    -2
100
AcDbLine
 10
67.39864779931915
 20
192.1820475119651
 30
0.0
 11
66.95162465283974
 21
191.7101679653521
 31
0.0
  0
MTEXT
  5
94C
330
942
100
AcDbEntity
  8
标注
100
AcDbMText
 10
68.951766680036
 20
193.8215264495563
 30
0.0
 40
0.65
 41
0.0
 71
     5
 72
     1
  1
\A1;R3 7/8"
 11
0.6877279176606013
 21
0.7259685332507281
 31
0.0
 73
     1
 44
1.0
1001
ACAD
1000
MTEXTBEGIN
1070
    73
1070
     1
1070
    44
1040
1.0
1070
    74
1070
     0
1000
MTEXTEND
  0
SOLID
  5
94D
330
942
100
AcDbEntity
  8
标注
100
AcDbTrace
 10
66.87297806173759
 20
191.7846718230986
 30
0.0
 11
67.03027124394191
 21
191.6356641076055
 31
0.0
 12
66.50460150636035
 22
191.2382884187391
 32
0.0
 13
66.50460150636035
 23
191.2382884187391
 33
0.0
  0
POINT
  5
94E
330
942
100
AcDbEntity
  8
Defpoints
 62
     0
100
AcDbPoint
 10
66.50460150636035
 20
191.2382884187391
 30
0.0
  0
POINT
  5
94F
330
942
100
AcDbEntity
  8
Defpoints
 62
     0
100
AcDbPoint
 10
69.21219173337064
 20
194.0964322504349
 30
0.0
  0
ENDBLK
  5
949
330
942
100
AcDbEntity
  8
0
100
AcDbBlockEnd
  0
BLOCK
  5
958
330
952
100
AcDbEntity
  8
0
100
AcDbBlockBegin
  2
*D69
 70
     1
 10
0.0
 20
0.0
 30
0.0
  3
*D69
  1

  0
LINE
  5
95B
330
952
100
AcDbEntity
  8
标注
370
    -2
100
AcDbLine
 10
80.76732438351939
 20
204.9890475323705
 30
0.0
 11
81.29713411776066
 21
205.3656131249347
 31
0.0
  0
MTEXT
  5
95C
330
952
100
AcDbEntity
  8
标注
100
AcDbMText
 10
79.01487680102896
 20
203.7434844185045
 30
0.0
 40
0.65
 41
0.0
 71
     5
 72
     1
  1
\A1;R6 1/4"
 11
0.8150918988327415
 21
0.5793316808679087
 31
0.0
 73
     1
 44
1.0
1001
ACAD
1000
MTEXTBEGIN
1070
    73
1070
     1
1070
    44
1040
1.0
1070
    74
1070
     0
1000
MTEXTEND
  0
SOLID
  5
95D
330
952
100
AcDbEntity
  8
标注
100
AcDbTrace
 10
81.23437318566663
 20
205.4539147473082
 30
0.0
 11
81.35989504985468
 21
205.2773115025611
 31
0.0
 12
81.82694385200193
 22
205.7421787174988
 32
0.0
 13
81.82694385200193
 23
205.7421787174988
 33
0.0
  0
POINT
  5
95E
330
952
100
AcDbEntity
  8
Defpoints
 62
     0
100
AcDbPoint
 10
81.82694385200193
 20
205.7421787174988
 30
0.0
  0
POINT
  5
95F
330
952
100
AcDbEntity
  8
Defpoints
 62
     0
100
AcDbPoint
 10
76.6925066940002
 20
202.0928452947087
 30
0.0
  0
ENDBLK
  5
959
330
952
100
AcDbEntity
  8
0
100
AcDbBlockEnd
  0
BLOCK
  5
968
330
962
100
AcDbEntity
  8
0
100
AcDbBlockBegin
  2
*D70
 70
     1
 10
0.0
 20
0.0
 30
0.0
  3
*D70
  1

  0
LINE
  5
96B
330
962
100
AcDbEntity
  8
标注
370
    -2
100
AcDbLine
 10
86.28904113290403
 20
192.0552004364042
 30
0.0
 11
85.83099437774405
 21
191.5940137387563
 31
0.0
  0
MTEXT
  5
96C
330
962
100
AcDbEntity
  8
标注
100
AcDbMText
 10
87.80411886151005
 20
193.5806641286245
 30
0.0
 40
0.65
 41
0.0
 71
     5
 72
     1
  1
\A1;R3 1/8"
 11
0.7046873156306973
 21
0.7095179963814888
 31
0.0
 73
     1
 44
1.0
1001
ACAD
1000
MTEXTBEGIN
1070
    73
1070
     1
1070
    44
1040
1.0
1070
    74
1070
     0
1000
MTEXTEND
  0
SOLID
  5
96D
330
962
100
AcDbEntity
  8
标注
100
AcDbTrace
 10
85.75412992813609
 20
191.6703548646163
 30
0.0
 11
85.90785882735207
 21
191.5176726128963
 31
0.0
 12
85.37294762258412
 22
191.1328270411083
 32
0.0
 13
85.37294762258412
 23
191.1328270411083
 33
0.0
  0
POINT
  5
96E
330
962
100
AcDbEntity
  8
Defpoints
 62
     0
100
AcDbPoint
 10
85.37294762258412
 20
191.1328270411083
 30
0.0
  0
POINT
  5
96F
330
962
100
AcDbEntity
  8
Defpoints
 62
     0
100
AcDbPoint
 10
87.59243523086972
 20
193.3675293919161
 30
0.0
  0
ENDBLK
  5
969
330
962
100
AcDbEntity
  8
0
100
AcDbBlockEnd
  0
BLOCK
  5
A4B
330
A45
100
AcDbEntity
  8
0
100
AcDbBlockBegin
  2
*D71
 70
     1
 10
0.0
 20
0.0
 30
0.0
  3
*D71
  1

  0
LINE
  5
A46
330
A45
100
AcDbEntity
  8
标注
370
    -2
100
AcDbLine
 10
168.9668689562376
 20
205.774962187752
 30
0.0
 11
169.4065254956871
 21
206.2537127776414
 31
0.0
  0
MTEXT
  5
A47
330
A45
100
AcDbEntity
  8
标注
100
AcDbMText
 10
167.5126204026742
 20
204.191402544272
 30
0.0
 40
0.65
 41
0.0
 71
     5
 72
     1
  1
\A1;R6 1/4"
 11
0.6763946760760256
 21
0.7365393690604791
 31
0.0
 73
     1
 44
1.0
1001
ACAD
1000
MTEXTBEGIN
1070
    73
1070
     1
1070
    44
1040
1.0
1070
    74
1070
     0
1000
MTEXTEND
  0
SOLID
  5
A48
330
A45
100
AcDbEntity
  8
标注
100
AcDbTrace
 10
169.3267337307055
 20
206.3269888675496
 30
0.0
 11
169.4863172606686
 21
206.1804366877332
 31
0.0
 12
169.8461820351365
 22
206.7324633675307
 32
0.0
 13
169.8461820351365
 23
206.7324633675307
 33
0.0
  0
POINT
  5
A49
330
A45
100
AcDbEntity
  8
Defpoints
 62
     0
100
AcDbPoint
 10
169.8461820351365
 20
206.7324633675307
 30
0.0
  0
POINT
  5
A4A
330
A45
100
AcDbEntity
  8
Defpoints
 62
     0
100
AcDbPoint
 10
165.5854281700908
 20
202.0928452947089
 30
0.0
  0
ENDBLK
  5
A4C
330
A45
100
AcDbEntity
  8
0
100
AcDbBlockEnd
  0
BLOCK
  5
A53
330
A4D
100
AcDbEntity
  8
0
100
AcDbBlockBegin
  2
*D72
 70
     1
 10
0.0
 20
0.0
 30
0.0
  3
*D72
  1

  0
LINE
  5
A4E
330
A4D
100
AcDbEntity
  8
标注
370
    -2
100
AcDbLine
 10
159.4190959374264
 20
206.9809284824648
 30
0.0
 11
159.2828056148457
 21
207.6164793836292
 31
0.0
  0
MTEXT
  5
A4F
330
A4D
100
AcDbEntity
  8
标注
100
AcDbMText
 10
159.9153324965661
 20
204.6668713551483
 30
0.0
 40
0.65
 41
0.0
 71
     5
 72
     1
  1
\A1;R18 1/2"
 11
0.2096774193548417
 21
-0.9777706171759785
 31
0.0
 73
     1
 44
1.0
1001
ACAD
1000
MTEXTBEGIN
1070
    73
1070
     1
1070
    44
1040
1.0
1070
    74
1070
     0
1000
MTEXTEND
  0
SOLID
  5
A50
330
A4D
100
AcDbEntity
  8
标注
100
AcDbTrace
 10
159.3887307650398
 20
207.6391944373926
 30
0.0
 11
159.1768804646517
 21
207.5937643298658
 31
0.0
 12
159.1465152922651
 22
208.2520302847936
 32
0.0
 13
159.1465152922651
 23
208.2520302847936
 33
0.0
  0
POINT
  5
A51
330
A4D
100
AcDbEntity
  8
Defpoints
 62
     0
100
AcDbPoint
 10
159.1465152922651
 20
208.2520302847936
 30
0.0
  0
POINT
  5
A52
330
A4D
100
AcDbEntity
  8
Defpoints
 62
     0
100
AcDbPoint
 10
163.0263730519807
 20
190.159424376419
 30
0.0
  0
ENDBLK
  5
A54
330
A4D
100
AcDbEntity
  8
0
100
AcDbBlockEnd
  0
BLOCK
  5
A5B
330
A55
100
AcDbEntity
  8
0
100
AcDbBlockBegin
  2
*D73
 70
     1
 10
0.0
 20
0.0
 30
0.0
  3
*D73
  1

  0
LINE
  5
A56
330
A55
100
AcDbEntity
  8
标注
370
    -2
100
AcDbLine
 10
169.7611768285517
 20
192.1820475119651
 30
0.0
 11
170.208199975031
 21
191.7101679653521
 31
0.0
  0
MTEXT
  5
A57
330
A55
100
AcDbEntity
  8
标注
100
AcDbMText
 10
168.2080579478348
 20
193.8215264495563
 30
0.0
 40
0.65
 41
0.0
 71
     5
 72
     1
  1
\A1;R3 7/8"
 11
0.6877279176606053
 21
-0.7259685332507241
 31
0.0
 73
     1
 44
1.0
1001
ACAD
1000
MTEXTBEGIN
1070
    73
1070
     1
1070
    44
1040
1.0
1070
    74
1070
     0
1000
MTEXTEND
  0
SOLID
  5
A58
330
A55
100
AcDbEntity
  8
标注
100
AcDbTrace
 10
170.2868465661333
 20
191.7846718230986
 30
0.0
 11
170.1295533839289
 21
191.6356641076055
 31
0.0
 12
170.6552231215105
 22
191.2382884187391
 32
0.0
 13
170.6552231215105
 23
191.2382884187391
 33
0.0
  0
POINT
  5
A59
330
A55
100
AcDbEntity
  8
Defpoints
 62
     0
100
AcDbPoint
 10
170.6552231215105
 20
191.2382884187391
 30
0.0
  0
POINT
  5
A5A
330
A55
100
AcDbEntity
  8
Defpoints
 62
     0
100
AcDbPoint
 10
167.9476328945002
 20
194.0964322504349
 30
0.0
  0
ENDBLK
  5
A5C
330
A55
100
AcDbEntity
  8
0
100
AcDbBlockEnd
  0
BLOCK
  5
A63
330
A5D
100
AcDbEntity
  8
0
100
AcDbBlockBegin
  2
*D74
 70
     1
 10
0.0
 20
0.0
 30
0.0
  3
*D74
  1

  0
LINE
  5
A5E
330
A5D
100
AcDbEntity
  8
标注
370
    -2
100
AcDbLine
 10
156.3925002443515
 20
204.9890475323706
 30
0.0
 11
155.8626905101102
 21
205.3656131249347
 31
0.0
  0
MTEXT
  5
A5F
330
A5D
100
AcDbEntity
  8
标注
100
AcDbMText
 10
158.1449478268419
 20
203.7434844185046
 30
0.0
 40
0.65
 41
0.0
 71
     5
 72
     1
  1
\A1;R6 1/4"
 11
0.8150918988327383
 21
-0.5793316808679129
 31
0.0
 73
     1
 44
1.0
1001
ACAD
1000
MTEXTBEGIN
1070
    73
1070
     1
1070
    44
1040
1.0
1070
    74
1070
     0
1000
MTEXTEND
  0
SOLID
  5
A60
330
A5D
100
AcDbEntity
  8
标注
100
AcDbTrace
 10
155.9254514422041
 20
205.4539147473083
 30
0.0
 11
155.7999295780162
 21
205.2773115025611
 31
0.0
 12
155.3328807758689
 22
205.7421787174988
 32
0.0
 13
155.3328807758689
 23
205.7421787174988
 33
0.0
  0
POINT
  5
A61
330
A5D
100
AcDbEntity
  8
Defpoints
 62
     0
100
AcDbPoint
 10
155.3328807758689
 20
205.7421787174988
 30
0.0
  0
POINT
  5
A62
330
A5D
100
AcDbEntity
  8
Defpoints
 62
     0
100
AcDbPoint
 10
160.4673179338707
 20
202.0928452947087
 30
0.0
  0
ENDBLK
  5
A64
330
A5D
100
AcDbEntity
  8
0
100
AcDbBlockEnd
  0
BLOCK
  5
A6B
330
A65
100
AcDbEntity
  8
0
100
AcDbBlockBegin
  2
*D75
 70
     1
 10
0.0
 20
0.0
 30
0.0
  3
*D75
  1

  0
LINE
  5
A66
330
A65
100
AcDbEntity
  8
标注
370
    -2
100
AcDbLine
 10
150.8707834949668
 20
192.0552004364043
 30
0.0
 11
151.3288302501268
 21
191.5940137387563
 31
0.0
  0
MTEXT
  5
A67
330
A65
100
AcDbEntity
  8
标注
100
AcDbMText
 10
149.3557057663608
 20
193.5806641286245
 30
0.0
 40
0.65
 41
0.0
 71
     5
 72
     1
  1
\A1;R3 1/8"
 11
0.7046873156306976
 21
-0.7095179963814884
 31
0.0
 73
     1
 44
1.0
1001
ACAD
1000
MTEXTBEGIN
1070
    73
1070
     1
1070
    44
1040
1.0
1070
    74
1070
     0
1000
MTEXTEND
  0
SOLID
  5
A68
330
A65
100
AcDbEntity
  8
标注
100
AcDbTrace
 10
151.4056946997348
 20
191.6703548646163
 30
0.0
 11
151.2519658005188
 21
191.5176726128963
 31
0.0
 12
151.7868770052867
 22
191.1328270411083
 32
0.0
 13
151.7868770052867
 23
191.1328270411083
 33
0.0
  0
POINT
  5
A69
330
A65
100
AcDbEntity
  8
Defpoints
 62
     0
100
AcDbPoint
 10
151.7868770052867
 20
191.1328270411083
 30
0.0
  0
POINT
  5
A6A
330
A65
100
AcDbEntity
  8
Defpoints
 62
     0
100
AcDbPoint
 10
149.5673893970011
 20
193.3675293919161
 30
0.0
  0
ENDBLK
  5
A6C
330
A65
100
AcDbEntity
  8
0
100
AcDbBlockEnd
  0
BLOCK
  5
A78
330
A6D
100
AcDbEntity
  8
0
100
AcDbBlockBegin
  2
*D76
 70
     1
 10
0.0
 20
0.0
 30
0.0
  3
*D76
  1

  0
LINE
  5
C1E
330
A6D
100
AcDbEntity
  8
标注
370
    -2
100
AcDbLine
 10
173.7892470677285
 20
227.6700136588063
 30
0.0
 11
176.0268199831119
 21
227.6700136588063
 31
0.0
  0
LINE
  5
C1F
330
A6D
100
AcDbEntity
  8
标注
370
    -2
100
AcDbLine
 10
166.0284396169085
 20
217.6687615607247
 30
0.0
 11
176.0268199831119
 21
217.6687615607247
 31
0.0
  0
LINE
  5
C20
330
A6D
100
AcDbEntity
  8
标注
370
    -2
100
AcDbLine
 10
175.7068199831119
 20
227.0200136588063
 30
0.0
 11
175.7068199831119
 21
223.4652209430988
 31
0.0
  0
LINE
  5
C21
330
A6D
100
AcDbEntity
  8
标注
370
    -2
100
AcDbLine
 10
175.7068199831119
 20
218.3187615607247
 30
0.0
 11
175.7068199831119
 21
221.8735542764322
 31
0.0
  0
SOLID
  5
C22
330
A6D
100
AcDbEntity
  8
标注
100
AcDbTrace
 10
175.5984866497786
 20
227.0200136588063
 30
0.0
 11
175.8151533164452
 21
227.0200136588063
 31
0.0
 12
175.7068199831119
 22
227.6700136588063
 32
0.0
 13
175.7068199831119
 23
227.6700136588063
 33
0.0
  0
SOLID
  5
C23
330
A6D
100
AcDbEntity
  8
标注
100
AcDbTrace
 10
175.5984866497786
 20
218.3187615607247
 30
0.0
 11
175.8151533164452
 21
218.3187615607247
 31
0.0
 12
175.7068199831119
 22
217.6687615607247
 32
0.0
 13
175.7068199831119
 23
217.6687615607247
 33
0.0
  0
MTEXT
  5
C24
330
A6D
100
AcDbEntity
  8
标注
100
AcDbMText
 10
175.7068199831119
 20
222.6693876097655
 30
0.0
 40
0.65
 41
0.0
 71
     5
 72
     1
  1
\A1;10"
 11
0.0000000000000001
 21
1.0
 31
0.0
 73
     1
 44
1.0
1001
ACAD
1000
MTEXTBEGIN
1070
    73
1070
     1
1070
    44
1040
1.0
1070
    74
1070
     0
1000
MTEXTEND
  0
POINT
  5
C25
330
A6D
100
AcDbEntity
  8
Defpoints
 62
     0
100
AcDbPoint
 10
172.9092470677285
 20
227.6700136588063
 30
0.0
  0
POINT
  5
C26
330
A6D
100
AcDbEntity
  8
Defpoints
 62
     0
100
AcDbPoint
 10
165.1484396169085
 20
217.6687615607247
 30
0.0
  0
POINT
  5
C27
330
A6D
100
AcDbEntity
  8
Defpoints
 62
     0
100
AcDbPoint
 10
175.7068199831119
 20
217.6687615607247
 30
0.0
  0
ENDBLK
  5
A79
330
A6D
100
AcDbEntity
  8
0
100
AcDbBlockEnd
  0
BLOCK
  5
A85
330
A7A
100
AcDbEntity
  8
0
100
AcDbBlockBegin
  2
*D77
 70
     1
 10
0.0
 20
0.0
 30
0.0
  3
*D77
  1

  0
LINE
  5
A7B
330
A7A
100
AcDbEntity
  8
标注
370
    -2
100
AcDbLine
 10
140.5331840756025
 20
227.670013658806
 30
0.0
 11
138.5586534047215
 21
227.670013658806
 31
0.0
  0
LINE
  5
A7C
330
A7A
100
AcDbEntity
  8
标注
370
    -2
100
AcDbLine
 10
144.8786758373794
 20
220.6608875449765
 30
0.0
 11
138.5586534047215
 21
220.6608875449765
 31
0.0
  0
LINE
  5
A7D
330
A7A
100
AcDbEntity
  8
标注
370
    -2
100
AcDbLine
 10
138.8786534047216
 20
227.020013658806
 30
0.0
 11
138.8786534047216
 21
224.7987839352246
 31
0.0
  0
LINE
  5
A7E
330
A7A
100
AcDbEntity
  8
标注
370
    -2
100
AcDbLine
 10
138.8786534047216
 20
221.3108875449766
 30
0.0
 11
138.8786534047216
 21
223.5321172685579
 31
0.0
  0
SOLID
  5
A7F
330
A7A
100
AcDbEntity
  8
标注
100
AcDbTrace
 10
138.7703200713882
 20
227.020013658806
 30
0.0
 11
138.9869867380549
 21
227.020013658806
 31
0.0
 12
138.8786534047216
 22
227.670013658806
 32
0.0
 13
138.8786534047216
 23
227.670013658806
 33
0.0
  0
SOLID
  5
A80
330
A7A
100
AcDbEntity
  8
标注
100
AcDbTrace
 10
138.7703200713882
 20
221.3108875449766
 30
0.0
 11
138.9869867380549
 21
221.3108875449766
 31
0.0
 12
138.8786534047216
 22
220.6608875449765
 32
0.0
 13
138.8786534047216
 23
220.6608875449765
 33
0.0
  0
MTEXT
  5
A81
330
A7A
100
AcDbEntity
  8
标注
100
AcDbMText
 10
138.8786534047215
 20
224.1654506018913
 30
0.0
 40
0.65
 41
0.0
 71
     5
 72
     1
  1
\A1;7"
 11
0.0000000000000001
 21
1.0
 31
0.0
 73
     1
 44
1.0
1001
ACAD
1000
MTEXTBEGIN
1070
    73
1070
     1
1070
    44
1040
1.0
1070
    74
1070
     0
1000
MTEXTEND
  0
POINT
  5
A82
330
A7A
100
AcDbEntity
  8
Defpoints
 62
     0
100
AcDbPoint
 10
141.4131840756025
 20
227.670013658806
 30
0.0
  0
POINT
  5
A83
330
A7A
100
AcDbEntity
  8
Defpoints
 62
     0
100
AcDbPoint
 10
145.7586758373794
 20
220.6608875449765
 30
0.0
  0
POINT
  5
A84
330
A7A
100
AcDbEntity
  8
Defpoints
 62
     0
100
AcDbPoint
 10
138.8786534047216
 20
220.6608875449765
 30
0.0
  0
ENDBLK
  5
A86
330
A7A
100
AcDbEntity
  8
0
100
AcDbBlockEnd
  0
BLOCK
  5
A92
330
A87
100
AcDbEntity
  8
0
100
AcDbBlockBegin
  2
*D78
 70
     1
 10
0.0
 20
0.0
 30
0.0
  3
*D78
  1

  0
LINE
  5
A88
330
A87
100
AcDbEntity
  8
标注
370
    -2
100
AcDbLine
 10
146.744798248831
 20
206.1436763449231
 30
0.0
 11
138.3571262195415
 21
206.1436763449231
 31
0.0
  0
LINE
  5
A89
330
A87
100
AcDbEntity
  8
标注
370
    -2
100
AcDbLine
 10
146.7447982488311
 20
190.1594243764192
 30
0.0
 11
138.3571262195415
 21
190.1594243764192
 31
0.0
  0
LINE
  5
A8A
330
A87
100
AcDbEntity
  8
标注
370
    -2
100
AcDbLine
 10
138.6771262195415
 20
205.4936763449231
 30
0.0
 11
138.6771262195415
 21
199.0015503606711
 31
0.0
  0
LINE
  5
A8B
330
A87
100
AcDbEntity
  8
标注
370
    -2
100
AcDbLine
 10
138.6771262195415
 20
190.8094243764191
 30
0.0
 11
138.6771262195415
 21
197.3015503606711
 31
0.0
  0
SOLID
  5
A8C
330
A87
100
AcDbEntity
  8
标注
100
AcDbTrace
 10
138.5687928862082
 20
205.4936763449231
 30
0.0
 11
138.7854595528748
 21
205.4936763449231
 31
0.0
 12
138.6771262195415
 22
206.1436763449231
 32
0.0
 13
138.6771262195415
 23
206.1436763449231
 33
0.0
  0
SOLID
  5
A8D
330
A87
100
AcDbEntity
  8
标注
100
AcDbTrace
 10
138.5687928862082
 20
190.8094243764191
 30
0.0
 11
138.7854595528748
 21
190.8094243764191
 31
0.0
 12
138.6771262195415
 22
190.1594243764192
 32
0.0
 13
138.6771262195415
 23
190.1594243764192
 33
0.0
  0
MTEXT
  5
A8E
330
A87
100
AcDbEntity
  8
标注
100
AcDbMText
 10
138.6771262195415
 20
198.1515503606711
 30
0.0
 40
0.65
 41
0.0
 71
     5
 72
     1
  1
\A1;16"
 11
0.0000000000000001
 21
1.0
 31
0.0
 73
     1
 44
1.0
1001
ACAD
1000
MTEXTBEGIN
1070
    73
1070
     1
1070
    44
1040
1.0
1070
    74
1070
     0
1000
MTEXTEND
  0
POINT
  5
A8F
330
A87
100
AcDbEntity
  8
Defpoints
 62
     0
100
AcDbPoint
 10
147.624798248831
 20
206.1436763449231
 30
0.0
  0
POINT
  5
A90
330
A87
100
AcDbEntity
  8
Defpoints
 62
     0
100
AcDbPoint
 10
147.6247982488311
 20
190.1594243764192
 30
0.0
  0
POINT
  5
A91
330
A87
100
AcDbEntity
  8
Defpoints
 62
     0
100
AcDbPoint
 10
138.6771262195415
 20
190.1594243764192
 30
0.0
  0
ENDBLK
  5
A93
330
A87
100
AcDbEntity
  8
0
100
AcDbBlockEnd
  0
BLOCK
  5
A9F
330
A94
100
AcDbEntity
  8
0
100
AcDbBlockBegin
  2
*D79
 70
     1
 10
0.0
 20
0.0
 30
0.0
  3
*D79
  1

  0
LINE
  5
A95
330
A94
100
AcDbEntity
  8
标注
370
    -2
100
AcDbLine
 10
144.6827903748152
 20
207.1436763449231
 30
0.0
 11
135.7527831253154
 21
207.1436763449231
 31
0.0
  0
LINE
  5
A96
330
A94
100
AcDbEntity
  8
标注
370
    -2
100
AcDbLine
 10
144.6827903748152
 20
189.1594243764192
 30
0.0
 11
135.7527831253154
 21
189.1594243764192
 31
0.0
  0
LINE
  5
A97
330
A94
100
AcDbEntity
  8
标注
370
    -2
100
AcDbLine
 10
136.0727831253154
 20
206.4936763449231
 30
0.0
 11
136.0727831253154
 21
199.0015503606711
 31
0.0
  0
LINE
  5
A98
330
A94
100
AcDbEntity
  8
标注
370
    -2
100
AcDbLine
 10
136.0727831253153
 20
189.8094243764191
 30
0.0
 11
136.0727831253154
 21
197.3015503606712
 31
0.0
  0
SOLID
  5
A99
330
A94
100
AcDbEntity
  8
标注
100
AcDbTrace
 10
135.9644497919821
 20
206.4936763449231
 30
0.0
 11
136.1811164586487
 21
206.4936763449231
 31
0.0
 12
136.0727831253154
 22
207.1436763449231
 32
0.0
 13
136.0727831253154
 23
207.1436763449231
 33
0.0
  0
SOLID
  5
A9A
330
A94
100
AcDbEntity
  8
标注
100
AcDbTrace
 10
135.964449791982
 20
189.8094243764191
 30
0.0
 11
136.1811164586487
 21
189.8094243764191
 31
0.0
 12
136.0727831253153
 22
189.1594243764192
 32
0.0
 13
136.0727831253153
 23
189.1594243764192
 33
0.0
  0
MTEXT
  5
A9B
330
A94
100
AcDbEntity
  8
标注
100
AcDbMText
 10
136.0727831253153
 20
198.1515503606712
 30
0.0
 40
0.65
 41
0.0
 71
     5
 72
     1
  1
\A1;18"
 11
0.0000000000000001
 21
1.0
 31
0.0
 73
     1
 44
1.0
1001
ACAD
1000
MTEXTBEGIN
1070
    73
1070
     1
1070
    44
1040
1.0
1070
    74
1070
     0
1000
MTEXTEND
  0
POINT
  5
A9C
330
A94
100
AcDbEntity
  8
Defpoints
 62
     0
100
AcDbPoint
 10
145.5627903748152
 20
207.1436763449231
 30
0.0
  0
POINT
  5
A9D
330
A94
100
AcDbEntity
  8
Defpoints
 62
     0
100
AcDbPoint
 10
145.5627903748152
 20
189.1594243764192
 30
0.0
  0
POINT
  5
A9E
330
A94
100
AcDbEntity
  8
Defpoints
 62
     0
100
AcDbPoint
 10
136.0727831253153
 20
189.1594243764192
 30
0.0
  0
ENDBLK
  5
AA0
330
A94
100
AcDbEntity
  8
0
100
AcDbBlockEnd
  0
BLOCK
  5
AAC
330
AA1
100
AcDbEntity
  8
0
100
AcDbBlockBegin
  2
*D80
 70
     1
 10
0.0
 20
0.0
 30
0.0
  3
*D80
  1

  0
LINE
  5
AA2
330
AA1
100
AcDbEntity
  8
标注
370
    -2
100
AcDbLine
 10
152.8610187212718
 20
197.2469440614585
 30
0.0
 11
152.8610187212718
 21
186.6800250198774
 31
0.0
  0
LINE
  5
AA3
330
AA1
100
AcDbEntity
  8
标注
370
    -2
100
AcDbLine
 10
142.3885777763901
 20
197.2715503606711
 30
0.0
 11
142.3885777763901
 21
186.6800250198774
 31
0.0
  0
LINE
  5
AA4
330
AA1
100
AcDbEntity
  8
标注
370
    -2
100
AcDbLine
 10
152.2110187212718
 20
187.0000250198774
 30
0.0
 11
149.612298248831
 21
187.0000250198774
 31
0.0
  0
LINE
  5
AA5
330
AA1
100
AcDbEntity
  8
标注
370
    -2
100
AcDbLine
 10
143.0385777763901
 20
187.0000250198774
 30
0.0
 11
145.637298248831
 21
187.0000250198774
 31
0.0
  0
SOLID
  5
AA6
330
AA1
100
AcDbEntity
  8
标注
100
AcDbTrace
 10
152.2110187212718
 20
187.1083583532108
 30
0.0
 11
152.2110187212718
 21
186.8916916865441
 31
0.0
 12
152.8610187212718
 22
187.0000250198774
 32
0.0
 13
152.8610187212718
 23
187.0000250198774
 33
0.0
  0
SOLID
  5
AA7
330
AA1
100
AcDbEntity
  8
标注
100
AcDbTrace
 10
143.0385777763901
 20
187.1083583532108
 30
0.0
 11
143.0385777763901
 21
186.8916916865441
 31
0.0
 12
142.3885777763901
 22
187.0000250198774
 32
0.0
 13
142.3885777763901
 23
187.0000250198774
 33
0.0
  0
MTEXT
  5
AA8
330
AA1
100
AcDbEntity
  8
标注
100
AcDbMText
 10
147.624798248831
 20
187.0000250198774
 30
0.0
 40
0.65
 41
0.0
 71
     5
 72
     1
  1
\A1;10 1/2"
 73
     1
 44
1.0
1001
ACAD
1000
MTEXTBEGIN
1070
    73
1070
     1
1070
    44
1040
1.0
1070
    74
1070
     0
1000
MTEXTEND
  0
POINT
  5
AA9
330
AA1
100
AcDbEntity
  8
Defpoints
 62
     0
100
AcDbPoint
 10
152.8610187212718
 20
198.1269440614586
 30
0.0
  0
POINT
  5
AAA
330
AA1
100
AcDbEntity
  8
Defpoints
 62
     0
100
AcDbPoint
 10
142.3885777763901
 20
198.1515503606711
 30
0.0
  0
POINT
  5
AAB
330
AA1
100
AcDbEntity
  8
Defpoints
 62
     0
100
AcDbPoint
 10
142.3885777763901
 20
187.0000250198774
 30
0.0
  0
ENDBLK
  5
AAD
330
AA1
100
AcDbEntity
  8
0
100
AcDbBlockEnd
  0
BLOCK
  5
AB9
330
AAE
100
AcDbEntity
  8
0
100
AcDbBlockBegin
  2
*D81
 70
     1
 10
0.0
 20
0.0
 30
0.0
  3
*D81
  1

  0
LINE
  5
AAF
330
AAE
100
AcDbEntity
  8
标注
370
    -2
100
AcDbLine
 10
154.1681053354451
 20
193.2164322504349
 30
0.0
 11
154.1681053354451
 21
186.7117865246787
 31
0.0
  0
LINE
  5
AB0
330
AAE
100
AcDbEntity
  8
标注
370
    -2
100
AcDbLine
 10
171.8846407685161
 20
193.2164322504349
 30
0.0
 11
171.8846407685161
 21
186.7117865246787
 31
0.0
  0
LINE
  5
AB1
330
AAE
100
AcDbEntity
  8
标注
370
    -2
100
AcDbLine
 10
154.8181053354451
 20
187.0317865246787
 30
0.0
 11
160.8763730519806
 21
187.0317865246787
 31
0.0
  0
LINE
  5
AB2
330
AAE
100
AcDbEntity
  8
标注
370
    -2
100
AcDbLine
 10
171.234640768516
 20
187.0317865246787
 30
0.0
 11
165.1763730519806
 21
187.0317865246787
 31
0.0
  0
SOLID
  5
AB3
330
AAE
100
AcDbEntity
  8
标注
100
AcDbTrace
 10
154.8181053354451
 20
187.140119858012
 30
0.0
 11
154.8181053354451
 21
186.9234531913454
 31
0.0
 12
154.1681053354451
 22
187.0317865246787
 32
0.0
 13
154.1681053354451
 23
187.0317865246787
 33
0.0
  0
SOLID
  5
AB4
330
AAE
100
AcDbEntity
  8
标注
100
AcDbTrace
 10
171.234640768516
 20
187.140119858012
 30
0.0
 11
171.234640768516
 21
186.9234531913454
 31
0.0
 12
171.8846407685161
 22
187.0317865246787
 32
0.0
 13
171.8846407685161
 23
187.0317865246787
 33
0.0
  0
MTEXT
  5
AB5
330
AAE
100
AcDbEntity
  8
标注
100
AcDbMText
 10
163.0263730519805
 20
187.0317865246787
 30
0.0
 40
0.65
 41
0.0
 71
     5
 72
     1
  1
\A1;17 3/4"
 73
     1
 44
1.0
1001
ACAD
1000
MTEXTBEGIN
1070
    73
1070
     1
1070
    44
1040
1.0
1070
    74
1070
     0
1000
MTEXTEND
  0
POINT
  5
AB6
330
AAE
100
AcDbEntity
  8
Defpoints
 62
     0
100
AcDbPoint
 10
154.1681053354451
 20
194.0964322504349
 30
0.0
  0
POINT
  5
AB7
330
AAE
100
AcDbEntity
  8
Defpoints
 62
     0
100
AcDbPoint
 10
171.8846407685161
 20
194.0964322504349
 30
0.0
  0
POINT
  5
AB8
330
AAE
100
AcDbEntity
  8
Defpoints
 62
     0
100
AcDbPoint
 10
171.8846407685161
 20
187.0317865246787
 30
0.0
  0
ENDBLK
  5
ABA
330
AAE
100
AcDbEntity
  8
0
100
AcDbBlockEnd
  0
BLOCK
  5
AC6
330
ABB
100
AcDbEntity
  8
0
100
AcDbBlockBegin
  2
*D82
 70
     1
 10
0.0
 20
0.0
 30
0.0
  3
*D82
  1

  0
LINE
  5
ABC
330
ABB
100
AcDbEntity
  8
标注
370
    -2
100
AcDbLine
 10
172.9092470677286
 20
193.2164322504349
 30
0.0
 11
172.9092470677286
 21
184.6028322830472
 31
0.0
  0
LINE
  5
ABD
330
ABB
100
AcDbEntity
  8
标注
370
    -2
100
AcDbLine
 10
141.4131840756025
 20
192.4290306756318
 30
0.0
 11
141.4131840756025
 21
184.6028322830472
 31
0.0
  0
LINE
  5
ABE
330
ABB
100
AcDbEntity
  8
标注
370
    -2
100
AcDbLine
 10
172.2592470677286
 20
184.9228322830471
 30
0.0
 11
159.2028822383322
 21
184.9228322830471
 31
0.0
  0
LINE
  5
ABF
330
ABB
100
AcDbEntity
  8
标注
370
    -2
100
AcDbLine
 10
142.0631840756025
 20
184.9228322830471
 30
0.0
 11
155.1195489049989
 21
184.9228322830471
 31
0.0
  0
SOLID
  5
AC0
330
ABB
100
AcDbEntity
  8
标注
100
AcDbTrace
 10
172.2592470677286
 20
185.0311656163805
 30
0.0
 11
172.2592470677286
 21
184.8144989497139
 31
0.0
 12
172.9092470677286
 22
184.9228322830471
 32
0.0
 13
172.9092470677286
 23
184.9228322830471
 33
0.0
  0
SOLID
  5
AC1
330
ABB
100
AcDbEntity
  8
标注
100
AcDbTrace
 10
142.0631840756025
 20
185.0311656163805
 30
0.0
 11
142.0631840756025
 21
184.8144989497139
 31
0.0
 12
141.4131840756025
 22
184.9228322830471
 32
0.0
 13
141.4131840756025
 23
184.9228322830471
 33
0.0
  0
MTEXT
  5
AC2
330
ABB
100
AcDbEntity
  8
标注
100
AcDbMText
 10
157.1612155716656
 20
184.9228322830471
 30
0.0
 40
0.65
 41
0.0
 71
     5
 72
     1
  1
\A1;31 1/2"
 73
     1
 44
1.0
1001
ACAD
1000
MTEXTBEGIN
1070
    73
1070
     1
1070
    44
1040
1.0
1070
    74
1070
     0
1000
MTEXTEND
  0
POINT
  5
AC3
330
ABB
100
AcDbEntity
  8
Defpoints
 62
     0
100
AcDbPoint
 10
172.9092470677286
 20
194.0964322504349
 30
0.0
  0
POINT
  5
AC4
330
ABB
100
AcDbEntity
  8
Defpoints
 62
     0
100
AcDbPoint
 10
141.4131840756025
 20
193.3090306756318
 30
0.0
  0
POINT
  5
AC5
330
ABB
100
AcDbEntity
  8
Defpoints
 62
     0
100
AcDbPoint
 10
141.4131840756025
 20
184.9228322830471
 30
0.0
  0
ENDBLK
  5
AC7
330
ABB
100
AcDbEntity
  8
0
100
AcDbBlockEnd
  0
BLOCK
  5
AD3
330
AC8
100
AcDbEntity
  8
0
100
AcDbBlockBegin
  2
*D83
 70
     1
 10
0.0
 20
0.0
 30
0.0
  3
*D83
  1

  0
LINE
  5
AC9
330
AC8
100
AcDbEntity
  8
标注
370
    -2
100
AcDbLine
 10
163.9063730519805
 20
208.6633613842932
 30
0.0
 11
176.0691845106914
 21
208.6633613842932
 31
0.0
  0
LINE
  5
ACA
330
AC8
100
AcDbEntity
  8
标注
370
    -2
100
AcDbLine
 10
168.8276328945003
 20
190.1594243764192
 30
0.0
 11
176.0691845106914
 21
190.1594243764192
 31
0.0
  0
LINE
  5
ACB
330
AC8
100
AcDbEntity
  8
标注
370
    -2
100
AcDbLine
 10
175.7491845106914
 20
208.0133613842932
 30
0.0
 11
175.7491845106914
 21
201.4530595470229
 31
0.0
  0
LINE
  5
ACC
330
AC8
100
AcDbEntity
  8
标注
370
    -2
100
AcDbLine
 10
175.7491845106914
 20
190.8094243764191
 30
0.0
 11
175.7491845106914
 21
197.3697262136895
 31
0.0
  0
SOLID
  5
ACD
330
AC8
100
AcDbEntity
  8
标注
100
AcDbTrace
 10
175.6408511773581
 20
208.0133613842932
 30
0.0
 11
175.8575178440247
 21
208.0133613842932
 31
0.0
 12
175.7491845106914
 22
208.6633613842932
 32
0.0
 13
175.7491845106914
 23
208.6633613842932
 33
0.0
  0
SOLID
  5
ACE
330
AC8
100
AcDbEntity
  8
标注
100
AcDbTrace
 10
175.6408511773581
 20
190.8094243764191
 30
0.0
 11
175.8575178440247
 21
190.8094243764191
 31
0.0
 12
175.7491845106914
 22
190.1594243764192
 32
0.0
 13
175.7491845106914
 23
190.1594243764192
 33
0.0
  0
MTEXT
  5
ACF
330
AC8
100
AcDbEntity
  8
标注
100
AcDbMText
 10
175.7491845106914
 20
199.4113928803562
 30
0.0
 40
0.65
 41
0.0
 71
     5
 72
     1
  1
\A1;18 1/2"
 11
0.0000000000000001
 21
1.0
 31
0.0
 73
     1
 44
1.0
1001
ACAD
1000
MTEXTBEGIN
1070
    73
1070
     1
1070
    44
1040
1.0
1070
    74
1070
     0
1000
MTEXTEND
  0
POINT
  5
AD0
330
AC8
100
AcDbEntity
  8
Defpoints
 62
     0
100
AcDbPoint
 10
163.0263730519805
 20
208.6633613842932
 30
0.0
  0
POINT
  5
AD1
330
AC8
100
AcDbEntity
  8
Defpoints
 62
     0
100
AcDbPoint
 10
167.9476328945003
 20
190.1594243764192
 30
0.0
  0
POINT
  5
AD2
330
AC8
100
AcDbEntity
  8
Defpoints
 62
     0
100
AcDbPoint
 10
175.7491845106914
 20
190.1594243764192
 30
0.0
  0
ENDBLK
  5
AD4
330
AC8
100
AcDbEntity
  8
0
100
AcDbBlockEnd
  0
BLOCK
  5
AE0
330
AD5
100
AcDbEntity
  8
0
100
AcDbBlockBegin
  2
*D84
 70
     1
 10
0.0
 20
0.0
 30
0.0
  3
*D84
  1

  0
LINE
  5
AD6
330
AD5
100
AcDbEntity
  8
标注
370
    -2
100
AcDbLine
 10
163.9309793511932
 20
209.6633613842932
 30
0.0
 11
178.4819254583369
 21
209.6633613842932
 31
0.0
  0
LINE
  5
AD7
330
AD5
100
AcDbEntity
  8
标注
370
    -2
100
AcDbLine
 10
168.8522391937129
 20
189.1594243764191
 30
0.0
 11
178.4819254583369
 21
189.1594243764191
 31
0.0
  0
LINE
  5
AD8
330
AD5
100
AcDbEntity
  8
标注
370
    -2
100
AcDbLine
 10
178.1619254583369
 20
209.0133613842932
 30
0.0
 11
178.1619254583369
 21
201.5072262136895
 31
0.0
  0
LINE
  5
AD9
330
AD5
100
AcDbEntity
  8
标注
370
    -2
100
AcDbLine
 10
178.1619254583369
 20
189.8094243764191
 30
0.0
 11
178.1619254583369
 21
197.3155595470228
 31
0.0
  0
SOLID
  5
ADA
330
AD5
100
AcDbEntity
  8
标注
100
AcDbTrace
 10
178.0535921250035
 20
209.0133613842932
 30
0.0
 11
178.2702587916702
 21
209.0133613842932
 31
0.0
 12
178.1619254583369
 22
209.6633613842932
 32
0.0
 13
178.1619254583369
 23
209.6633613842932
 33
0.0
  0
SOLID
  5
ADB
330
AD5
100
AcDbEntity
  8
标注
100
AcDbTrace
 10
178.0535921250035
 20
189.8094243764191
 30
0.0
 11
178.2702587916702
 21
189.8094243764191
 31
0.0
 12
178.1619254583369
 22
189.1594243764191
 32
0.0
 13
178.1619254583369
 23
189.1594243764191
 33
0.0
  0
MTEXT
  5
ADC
330
AD5
100
AcDbEntity
  8
标注
100
AcDbMText
 10
178.1619254583368
 20
199.4113928803562
 30
0.0
 40
0.65
 41
0.0
 71
     5
 72
     1
  1
\A1;20 1/2"
 11
0.0000000000000001
 21
1.0
 31
0.0
 73
     1
 44
1.0
1001
ACAD
1000
MTEXTBEGIN
1070
    73
1070
     1
1070
    44
1040
1.0
1070
    74
1070
     0
1000
MTEXTEND
  0
POINT
  5
ADD
330
AD5
100
AcDbEntity
  8
Defpoints
 62
     0
100
AcDbPoint
 10
163.0509793511931
 20
209.6633613842932
 30
0.0
  0
POINT
  5
ADE
330
AD5
100
AcDbEntity
  8
Defpoints
 62
     0
100
AcDbPoint
 10
167.9722391937129
 20
189.1594243764191
 30
0.0
  0
POINT
  5
ADF
330
AD5
100
AcDbEntity
  8
Defpoints
 62
     0
100
AcDbPoint
 10
178.1619254583369
 20
189.1594243764191
 30
0.0
  0
ENDBLK
  5
AE1
330
AD5
100
AcDbEntity
  8
0
100
AcDbBlockEnd
  0
ENDSEC
  0
SECTION
  2
ENTITIES
  0
MTEXT
  5
75D
330
21
100
AcDbEntity
  8
标注
 48
5.0
100
AcDbMText
 10
156.1037469450668
 20
215.4745373824368
 30
0.0
 40
0.7874015748031497
 41
15.1555422233215
 71
     1
 72
     5
  1
{\fArial|b0|i0|c0|p32;FRONT VIEW }
 73
     1
 44
1.0
1001
ACAD
1000
MTEXTBEGIN
1070
    73
1070
     1
1070
    44
1040
1.0
1070
    74
1070
     0
1000
MTEXTEND
  0
MTEXT
  5
75E
330
21
100
AcDbEntity
  8
标注
 48
5.0
100
AcDbMText
 10
155.8692887978386
 20
181.3972605482966
 30
0.0
 40
0.7874015748031497
 41
15.1555422233215
 71
     1
 72
     5
  1
{\fArial|b0|i0|c0|p32;OVERHEAD VIEW}
 73
     1
 44
1.0
1001
ACAD
1000
MTEXTBEGIN
1070
    73
1070
     1
1070
    44
1040
1.0
1070
    74
1070
     0
1000
MTEXTEND
  0
LINE
  5
75F
330
21
100
AcDbEntity
  8
虚线
 62
     3
 48
0.3
370
    35
100
AcDbLine
 10
151.0037899947135
 20
143.7925950736715
 30
0.0
 11
157.2205949987974
 21
143.7925950736715
 31
0.0
  0
LINE
  5
760
330
21
100
AcDbEntity
  8
截面层
 62
     1
 48
0.2
370
    35
100
AcDbLine
 10
151.0037899947135
 20
141.8240911366637
 30
0.0
 11
157.2205949987974
 21
141.8240911366637
 31
0.0
  0
LINE
  5
761
330
21
100
AcDbEntity
  8
虚线
 62
    11
 48
0.15
370
    35
100
AcDbLine
 10
151.0037899947135
 20
139.8555871996558
 30
0.0
 11
157.2205949987974
 21
139.8555871996558
 31
0.0
  0
MTEXT
  5
762
330
21
100
AcDbEntity
  8
标注
 48
5.0
100
AcDbMText
 10
158.6691960752804
 20
144.3407600112824
 30
0.0
 40
0.7874015748031497
 41
15.1555422233215
 71
     1
 72
     5
  1
1/4" {\fArial|b0|i0|c0|p32;REVEAL CUTOUT}
 73
     1
 44
1.0
1001
ACAD
1000
MTEXTBEGIN
1070
    73
1070
     1
1070
    44
1040
1.0
1070
    74
1070
     0
1000
MTEXTEND
  0
MTEXT
  5
763
330
21
100
AcDbEntity
  8
标注
 48
5.0
100
AcDbMText
 10
158.66919607528
 20
142.3722560742745
 30
0.0
 40
0.7874015748031497
 41
15.1555422233215
 71
     1
 72
     5
  1
{\fArial|b0|i0|c0|p32;FLUSH CUTOUT}
 73
     1
 44
1.0
1001
ACAD
1000
MTEXTBEGIN
1070
    73
1070
     1
1070
    44
1040
1.0
1070
    74
1070
     0
1000
MTEXTEND
  0
MTEXT
  5
764
330
21
100
AcDbEntity
  8
标注
 48
5.0
100
AcDbMText
 10
158.6691960752804
 20
140.4037521372666
 30
0.0
 40
0.7874015748031497
 41
15.1555422233215
 71
     1
 72
     5
  1
1/4" {\fArial|b0|i0|c0|p32;OVERHANG CUTOUT}
 73
     1
 44
1.0
1001
ACAD
1000
MTEXTBEGIN
1070
    73
1070
     1
1070
    44
1040
1.0
1070
    74
1070
     0
1000
MTEXTEND
  0
MTEXT
  5
765
330
21
100
AcDbEntity
  8
标注
 48
5.0
100
AcDbMText
 10
153.8599097862115
 20
109.0238508549169
 30
0.0
 40
0.7874015748031497
 41
15.1555422233215
 71
     1
 72
     5
  1
1/4" {\fArial|b0|i0|c0|p32;REVEAL CUTOUT}
 73
     1
 44
1.0
1001
ACAD
1000
MTEXTBEGIN
1070
    73
1070
     1
1070
    44
1040
1.0
1070
    74
1070
     0
1000
MTEXTEND
  0
MTEXT
  5
766
330
21
100
AcDbEntity
  8
标注
 48
5.0
100
AcDbMText
 10
155.2125567972989
 20
79.46890315579131
 30
0.0
 40
0.7874015748031497
 41
15.1555422233215
 71
     1
 72
     5
  1
{\fArial|b0|i0|c0|p32;FLUSH CUTOUT}
 73
     1
 44
1.0
1001
ACAD
1000
MTEXTBEGIN
1070
    73
1070
     1
1070
    44
1040
1.0
1070
    74
1070
     0
1000
MTEXTEND
  0
MTEXT
  5
767
330
21
100
AcDbEntity
  8
标注
 48
5.0
100
AcDbMText
 10
151.6705254252867
 20
49.76926390227013
 30
0.0
 40
0.7874015748031497
 41
15.1555422233215
 71
     1
 72
     5
  1
1/4" {\fArial|b0|i0|c0|p32;OVERHANG CUTOUT}
 73
     1
 44
1.0
1001
ACAD
1000
MTEXTBEGIN
1070
    73
1070
     1
1070
    44
1040
1.0
1070
    74
1070
     0
1000
MTEXTEND
  0
DIMENSION
  5
973
102
{ACAD_XDICTIONARY
360
974
102
}
102
{ACAD_REACTORS
330
975
102
}
330
21
100
AcDbEntity
  8
标注
100
AcDbDimension
  2
*D75
 10
149.5673893970011
 20
193.3675293919161
 30
0.0
 11
149.3557057663608
 21
193.5806641286245
 31
0.0
 70
   164
 71
     5
 42
3.149606299212535
  3
副本Standard
100
AcDbRadialDimension
 15
151.7868770052867
 25
191.1328270411083
 35
0.0
 40
0.0
1001
ACAD
1000
DSTYLE
1002
{
1070
   288
1070
     1
1002
}
  0
DIMENSION
  5
976
102
{ACAD_XDICTIONARY
360
977
102
}
102
{ACAD_REACTORS
330
978
102
}
330
21
100
AcDbEntity
  8
标注
100
AcDbDimension
  2
*D74
 10
160.4673179338707
 20
202.0928452947087
 30
0.0
 11
158.1449478268419
 21
203.7434844185046
 31
0.0
 70
   164
 71
     5
 42
6.299212598425484
  3
副本Standard
100
AcDbRadialDimension
 15
155.3328807758689
 25
205.7421787174988
 35
0.0
 40
0.0
1001
ACAD
1000
DSTYLE
1002
{
1070
   288
1070
     1
1002
}
  0
DIMENSION
  5
979
102
{ACAD_XDICTIONARY
360
97A
102
}
102
{ACAD_REACTORS
330
97B
102
}
330
21
100
AcDbEntity
  8
标注
100
AcDbDimension
  2
*D73
 10
167.9476328945002
 20
194.0964322504349
 30
0.0
 11
168.2080579478348
 21
193.8215264495563
 31
0.0
 70
   164
 71
     5
 42
3.93700787401579
  3
副本Standard
100
AcDbRadialDimension
 15
170.6552231215105
 25
191.2382884187391
 35
0.0
 40
0.0
1001
ACAD
1000
DSTYLE
1002
{
1070
   288
1070
     1
1002
}
  0
DIMENSION
  5
97C
102
{ACAD_XDICTIONARY
360
97D
102
}
102
{ACAD_REACTORS
330
97E
102
}
330
21
100
AcDbEntity
  8
标注
100
AcDbDimension
  2
*D72
 10
163.0263730519807
 20
190.159424376419
 30
0.0
 11
159.9153324965661
 21
204.6668713551483
 31
0.0
 70
   164
 71
     5
 42
18.50393700787418
  3
副本Standard
100
AcDbRadialDimension
 15
159.1465152922651
 25
208.2520302847936
 35
0.0
 40
0.0
1001
ACAD
1000
DSTYLE
1002
{
1070
   279
1070
     1
1070
   288
1070
     1
1002
}
  0
DIMENSION
  5
97F
102
{ACAD_XDICTIONARY
360
980
102
}
102
{ACAD_REACTORS
330
981
102
}
330
21
100
AcDbEntity
  8
标注
100
AcDbDimension
  2
*D71
 10
165.5854281700908
 20
202.0928452947089
 30
0.0
 11
167.5126204026742
 21
204.191402544272
 31
0.0
 70
   164
 71
     5
 42
6.299212598425071
  3
副本Standard
100
AcDbRadialDimension
 15
169.8461820351365
 25
206.7324633675307
 35
0.0
 40
0.0
1001
ACAD
1000
DSTYLE
1002
{
1070
   288
1070
     1
1002
}
  0
ARC
  5
982
330
21
100
AcDbEntity
  8
虚线
 62
    11
 48
0.15
370
    35
100
AcDbCircle
 10
168.5063461063147
 20
55.19768208556934
 30
0.0
 40
3.687007874015747
100
AcDbArc
 50
270.0
 51
0.000000000000007
  0
LINE
  5
983
330
21
100
AcDbEntity
  8
虚线
 62
    11
 48
0.15
370
    35
100
AcDbLine
 10
172.1933539803305
 20
55.19768208556934
 30
0.0
 11
172.1933539803305
 21
63.19409512984307
 31
0.0
  0
ARC
  5
984
330
21
100
AcDbEntity
  8
虚线
 62
    11
 48
0.15
370
    35
100
AcDbCircle
 10
166.1441413819053
 20
63.19409512984307
 30
0.0
 40
6.049212598425196
100
AcDbArc
 50
0.000000000000007
 51
77.8965511292545
  0
ARC
  5
985
330
21
100
AcDbEntity
  8
虚线
 62
    11
 48
0.15
370
    35
100
AcDbCircle
 10
163.585086263795
 20
51.26067421155357
 30
0.0
 40
18.25393700787401
100
AcDbArc
 50
77.8965511292545
 51
102.1034488707455
  0
ARC
  5
986
330
21
100
AcDbEntity
  8
虚线
 62
    11
 48
0.15
370
    35
100
AcDbCircle
 10
161.0260311456848
 20
63.19409512984307
 30
0.0
 40
6.049212598425196
100
AcDbArc
 50
102.1034488707455
 51
137.7991651942062
  0
ARC
  5
987
330
21
100
AcDbEntity
  8
虚线
 62
    11
 48
0.15
370
    35
100
AcDbCircle
 10
155.952170005901
 20
67.7949261800575
 30
0.0
 40
0.8
100
AcDbArc
 50
270.0
 51
317.7991651942063
  0
LINE
  5
988
330
21
100
AcDbEntity
  8
虚线
 62
    11
 48
0.15
370
    35
100
AcDbLine
 10
148.1835114606453
 20
66.99492618005749
 30
0.0
 11
155.952170005901
 21
66.99492618005749
 31
0.0
  0
ARC
  5
989
330
21
100
AcDbEntity
  8
虚线
 62
    11
 48
0.15
370
    35
100
AcDbCircle
 10
148.1835114606454
 20
31.81185531391577
 30
0.0
 40
35.18307086614174
100
AcDbArc
 50
90.0
 51
93.44973974082638
  0
ARC
  5
98A
330
21
100
AcDbEntity
  8
虚线
 62
    11
 48
0.15
370
    35
100
AcDbCircle
 10
146.2409203124753
 20
64.03682116456057
 30
0.0
 40
2.899606299212598
100
AcDbArc
 50
93.44973974082554
 51
176.5512609740516
  0
ARC
  5
98B
330
21
100
AcDbEntity
  8
虚线
 62
    11
 48
0.15
370
    35
100
AcDbCircle
 10
225.6244563425352
 20
59.25280019580554
 30
0.0
 40
82.4271653543307
100
AcDbArc
 50
176.55126097405
 51
183.44873902595
  0
ARC
  5
98C
330
21
100
AcDbEntity
  8
虚线
 62
    11
 48
0.15
370
    35
100
AcDbCircle
 10
148.1835114606454
 20
86.69374507769536
 30
0.0
 40
35.18307086614174
100
AcDbArc
 50
266.5502602591736
 51
270.0
  0
ARC
  5
98D
330
21
100
AcDbEntity
  8
虚线
 62
    11
 48
0.15
370
    35
100
AcDbCircle
 10
146.2409203124753
 20
54.46877922705053
 30
0.0
 40
2.899606299212598
100
AcDbArc
 50
183.44873902595
 51
266.5502602591745
  0
LINE
  5
98E
330
21
100
AcDbEntity
  8
虚线
 62
    11
 48
0.15
370
    35
100
AcDbLine
 10
148.1835114606454
 20
51.51067421155357
 30
0.0
 11
168.5063461063147
 21
51.51067421155357
 31
0.0
  0
ARC
  5
98F
330
21
100
AcDbEntity
  8
截面层
 62
     1
 48
0.2
370
    35
100
AcDbCircle
 10
160.4072227356544
 20
93.49789096674854
 30
0.0
 40
6.299212598425196
100
AcDbArc
 50
102.1034488707455
 51
136.8986153568636
  0
ARC
  5
990
330
21
100
AcDbEntity
  8
截面层
 62
     1
 48
0.2
370
    35
100
AcDbCircle
 10
155.2237627290647
 20
98.34872201696295
 30
0.0
 40
0.8
100
AcDbArc
 50
270.0
 51
316.8986153568636
  0
LINE
  5
991
330
21
100
AcDbEntity
  8
截面层
 62
     1
 48
0.2
370
    35
100
AcDbLine
 10
147.5647030506149
 20
97.54872201696294
 30
0.0
 11
155.2237627290647
 21
97.54872201696294
 31
0.0
  0
ARC
  5
992
330
21
100
AcDbEntity
  8
截面层
 62
     1
 48
0.2
370
    35
100
AcDbCircle
 10
147.564703050615
 20
62.11565115082123
 30
0.0
 40
35.43307086614174
100
AcDbArc
 50
90.0
 51
93.44973974082639
  0
ARC
  5
993
330
21
100
AcDbEntity
  8
截面层
 62
     1
 48
0.2
370
    35
100
AcDbCircle
 10
145.6221119024449
 20
94.34061700146605
 30
0.0
 40
3.149606299212598
100
AcDbArc
 50
93.44973974082558
 51
176.5512609740516
  0
ARC
  5
994
330
21
100
AcDbEntity
  8
截面层
 62
     1
 48
0.2
370
    35
100
AcDbCircle
 10
225.0056479325048
 20
89.55659603271101
 30
0.0
 40
82.67716535433072
100
AcDbArc
 50
176.55126097405
 51
183.44873902595
  0
ARC
  5
995
330
21
100
AcDbEntity
  8
截面层
 62
     1
 48
0.2
370
    35
100
AcDbCircle
 10
145.6221119024449
 20
84.772575063956
 30
0.0
 40
3.149606299212598
100
AcDbArc
 50
183.44873902595
 51
266.5502602591744
  0
ARC
  5
996
330
21
100
AcDbEntity
  8
截面层
 62
     1
 48
0.2
370
    35
100
AcDbCircle
 10
147.564703050615
 20
116.9975409146008
 30
0.0
 40
35.43307086614174
100
AcDbArc
 50
266.5502602591736
 51
270.0
  0
LINE
  5
997
330
21
100
AcDbEntity
  8
截面层
 62
     1
 48
0.2
370
    35
100
AcDbLine
 10
147.564703050615
 20
81.56447004845905
 30
0.0
 11
167.8875376962843
 21
81.56447004845905
 31
0.0
  0
ARC
  5
998
330
21
100
AcDbEntity
  8
截面层
 62
     1
 48
0.2
370
    35
100
AcDbCircle
 10
167.8875376962843
 20
85.50147792247479
 30
0.0
 40
3.937007874015747
100
AcDbArc
 50
270.0
 51
0.000000000000007
  0
LINE
  5
999
330
21
100
AcDbEntity
  8
截面层
 62
     1
 48
0.2
370
    35
100
AcDbLine
 10
171.8245455703001
 20
85.50147792247479
 30
0.0
 11
171.8245455703001
 21
93.49789096674854
 31
0.0
  0
ARC
  5
99A
330
21
100
AcDbEntity
  8
截面层
 62
     1
 48
0.2
370
    35
100
AcDbCircle
 10
162.9662778537646
 20
81.56447004845905
 30
0.0
 40
18.50393700787401
100
AcDbArc
 50
77.8965511292545
 51
102.1034488707455
  0
ARC
  5
99B
330
21
100
AcDbEntity
  8
截面层
 62
     1
 48
0.2
370
    35
100
AcDbCircle
 10
165.5253329718749
 20
93.49789096674854
 30
0.0
 40
6.299212598425196
100
AcDbArc
 50
0.000000000000007
 51
77.8965511292545
  0
LINE
  5
99C
330
21
100
AcDbEntity
  8
虚线
 62
     3
 48
0.3
370
    35
100
AcDbLine
 10
170.9844105271615
 20
115.5007640023318
 30
0.0
 11
170.9844105271615
 21
123.4971770466055
 31
0.0
  0
ARC
  5
99D
330
21
100
AcDbEntity
  8
虚线
 62
     3
 48
0.3
370
    35
100
AcDbCircle
 10
166.7974026531457
 20
115.5007640023318
 30
0.0
 40
4.187007874015748
100
AcDbArc
 50
270.0
 51
0.000000000000007
  0
LINE
  5
99E
330
21
100
AcDbEntity
  8
虚线
 62
     3
 48
0.3
370
    35
100
AcDbLine
 10
146.4745680074764
 20
111.313756128316
 30
0.0
 11
166.7974026531457
 21
111.313756128316
 31
0.0
  0
ARC
  5
99F
330
21
100
AcDbEntity
  8
虚线
 62
     3
 48
0.3
370
    35
100
AcDbCircle
 10
146.4745680074764
 20
146.9968269944578
 30
0.0
 40
35.68307086614173
100
AcDbArc
 50
266.5502602591736
 51
270.0
  0
ARC
  5
9A0
330
21
100
AcDbEntity
  8
虚线
 62
     3
 48
0.3
370
    35
100
AcDbCircle
 10
144.5319768593063
 20
114.771861143813
 30
0.0
 40
3.399606299212598
100
AcDbArc
 50
183.44873902595
 51
266.5502602591744
  0
ARC
  5
9A1
330
21
100
AcDbEntity
  8
虚线
 62
     3
 48
0.3
370
    35
100
AcDbCircle
 10
223.9155128893662
 20
119.555882112568
 30
0.0
 40
82.9271653543307
100
AcDbArc
 50
176.55126097405
 51
183.44873902595
  0
ARC
  5
9A2
330
21
100
AcDbEntity
  8
虚线
 62
     3
 48
0.3
370
    35
100
AcDbCircle
 10
144.5319768593063
 20
124.339903081323
 30
0.0
 40
3.399606299212598
100
AcDbArc
 50
93.44973974082558
 51
176.5512609740516
  0
ARC
  5
9A3
330
21
100
AcDbEntity
  8
虚线
 62
     3
 48
0.3
370
    35
100
AcDbCircle
 10
146.4745680074764
 20
92.11493723067826
 30
0.0
 40
35.68307086614173
100
AcDbArc
 50
90.0
 51
93.44973974082639
  0
LINE
  5
9A4
330
21
100
AcDbEntity
  8
虚线
 62
     3
 48
0.3
370
    35
100
AcDbLine
 10
146.4745680074763
 20
127.79800809682
 30
0.0
 11
154.0262986763084
 21
127.79800809682
 31
0.0
  0
ARC
  5
9A5
330
21
100
AcDbEntity
  8
虚线
 62
     3
 48
0.3
370
    35
100
AcDbCircle
 10
154.0262986763084
 20
128.5980080968199
 30
0.0
 40
0.8
100
AcDbArc
 50
270.0
 51
316.0472455321989
  0
ARC
  5
9A6
330
21
100
AcDbEntity
  8
虚线
 62
     3
 48
0.3
370
    35
100
AcDbCircle
 10
159.3170876925158
 20
123.4971770466055
 30
0.0
 40
6.549212598425196
100
AcDbArc
 50
102.1034488707455
 51
136.0472455321983
  0
ARC
  5
9A7
330
21
100
AcDbEntity
  8
虚线
 62
     3
 48
0.3
370
    35
100
AcDbCircle
 10
161.876142810626
 20
111.5637561283161
 30
0.0
 40
18.75393700787401
100
AcDbArc
 50
77.8965511292545
 51
102.1034488707455
  0
ARC
  5
9A8
330
21
100
AcDbEntity
  8
虚线
 62
     3
 48
0.3
370
    35
100
AcDbCircle
 10
164.4351979287362
 20
123.4971770466055
 30
0.0
 40
6.549212598425196
100
AcDbArc
 50
0.000000000000007
 51
77.8965511292545
  0
ARC
  5
9A9
330
21
100
AcDbEntity
  8
0
100
AcDbCircle
 10
160.5157444524901
 20
161.809469366914
 30
0.0
 40
6.299212598425196
100
AcDbArc
 50
136.898615356864
 51
180.0
  0
ARC
  5
9AA
330
21
100
AcDbEntity
  8
虚线
 62
    11
 48
0.15
370
    35
100
AcDbCircle
 10
155.4418833127063
 20
166.4103004171285
 30
0.0
 40
0.8
100
AcDbArc
 50
270.0
 51
317.7991651942059
  0
ARC
  5
9AB
330
21
100
AcDbEntity
  8
截面层
 62
     1
 48
0.2
370
    35
100
AcDbCircle
 10
155.3322844459004
 20
166.6603004171285
 30
0.0
 40
0.8
100
AcDbArc
 50
270.0
 51
316.8986153568642
  0
ARC
  5
9AC
330
21
100
AcDbEntity
  8
虚线
 62
     3
 48
0.3
370
    35
100
AcDbCircle
 10
155.2249554362827
 20
166.9103004171284
 30
0.0
 40
0.8
100
AcDbArc
 50
270.0
 51
316.0472455321989
  0
ARC
  5
9AD
330
21
100
AcDbEntity
  8
0
100
AcDbCircle
 10
147.6732247674505
 20
130.4272295509868
 30
0.0
 40
35.43307086614174
100
AcDbArc
 50
86.55026025917385
 51
90.0
  0
LINE
  5
9AE
330
21
100
AcDbEntity
  8
虚线
 62
     3
 48
0.3
370
    35
100
AcDbLine
 10
147.6732247674506
 20
166.1103004171285
 30
0.0
 11
155.2249554362827
 21
166.1103004171285
 31
0.0
  0
LINE
  5
9AF
330
21
100
AcDbEntity
  8
虚线
 62
    11
 48
0.15
370
    35
100
AcDbLine
 10
147.6732247674506
 20
165.6103004171285
 30
0.0
 11
155.4418833127063
 21
165.6103004171285
 31
0.0
  0
ARC
  5
9B0
330
21
100
AcDbEntity
  8
0
100
AcDbCircle
 10
147.6732247674507
 20
185.3091193147663
 30
0.0
 40
35.43307086614174
100
AcDbArc
 50
270.0
 51
273.4497397408262
  0
LINE
  5
9B1
330
21
100
AcDbEntity
  8
截面层
 62
     1
 48
0.2
370
    35
100
AcDbLine
 10
147.6732247674506
 20
165.8603004171285
 30
0.0
 11
155.3322844459004
 21
165.8603004171285
 31
0.0
  0
ARC
  5
9B2
330
21
100
AcDbEntity
  8
虚线
 62
    11
 48
0.15
370
    35
100
AcDbCircle
 10
147.6732247674507
 20
130.4272295509868
 30
0.0
 40
35.18307086614174
100
AcDbArc
 50
90.0
 51
93.44973974082614
  0
ARC
  5
9B3
330
21
100
AcDbEntity
  8
虚线
 62
     3
 48
0.3
370
    35
100
AcDbCircle
 10
147.6732247674507
 20
130.4272295509868
 30
0.0
 40
35.68307086614173
100
AcDbArc
 50
90.0
 51
93.44973974082614
  0
ARC
  5
9B4
330
21
100
AcDbEntity
  8
虚线
 62
    11
 48
0.15
370
    35
100
AcDbCircle
 10
145.7306336192806
 20
162.6521954016315
 30
0.0
 40
2.899606299212598
100
AcDbArc
 50
93.4497397408254
 51
176.5512609740523
  0
ARC
  5
9B5
330
21
100
AcDbEntity
  8
虚线
 62
     3
 48
0.3
370
    35
100
AcDbCircle
 10
145.7306336192806
 20
162.6521954016315
 30
0.0
 40
3.399606299212598
100
AcDbArc
 50
93.4497397408254
 51
176.5512609740523
  0
ARC
  5
9B6
330
21
100
AcDbEntity
  8
虚线
 62
    11
 48
0.15
370
    35
100
AcDbCircle
 10
225.1141696493405
 20
157.8681744328765
 30
0.0
 40
82.4271653543307
100
AcDbArc
 50
176.5512609740504
 51
183.4487390259495
  0
ARC
  5
9B7
330
21
100
AcDbEntity
  8
虚线
 62
     3
 48
0.3
370
    35
100
AcDbCircle
 10
225.1141696493405
 20
157.8681744328765
 30
0.0
 40
82.9271653543307
100
AcDbArc
 50
176.5512609740504
 51
183.4487390259495
  0
ARC
  5
9B8
330
21
100
AcDbEntity
  8
虚线
 62
    11
 48
0.15
370
    35
100
AcDbCircle
 10
147.6732247674507
 20
185.3091193147663
 30
0.0
 40
35.18307086614174
100
AcDbArc
 50
266.5502602591739
 51
270.0
  0
ARC
  5
9B9
330
21
100
AcDbEntity
  8
虚线
 62
    11
 48
0.15
370
    35
100
AcDbCircle
 10
145.7306336192806
 20
153.0841534641215
 30
0.0
 40
2.899606299212598
100
AcDbArc
 50
183.4487390259491
 51
266.5502602591746
  0
ARC
  5
9BA
330
21
100
AcDbEntity
  8
虚线
 62
     3
 48
0.3
370
    35
100
AcDbCircle
 10
145.7306336192806
 20
153.0841534641215
 30
0.0
 40
3.399606299212598
100
AcDbArc
 50
183.4487390259491
 51
266.5502602591746
  0
ARC
  5
9BB
330
21
100
AcDbEntity
  8
虚线
 62
     3
 48
0.3
370
    35
100
AcDbCircle
 10
147.6732247674507
 20
185.3091193147663
 30
0.0
 40
35.68307086614173
100
AcDbArc
 50
266.5502602591739
 51
270.0
  0
LINE
  5
9BC
330
21
100
AcDbEntity
  8
虚线
 62
     3
 48
0.3
370
    35
100
AcDbLine
 10
147.6732247674507
 20
149.6260484486245
 30
0.0
 11
167.99605941312
 21
149.6260484486245
 31
0.0
  0
LINE
  5
9BD
330
21
100
AcDbEntity
  8
虚线
 62
    11
 48
0.15
370
    35
100
AcDbLine
 10
147.6732247674507
 20
150.1260484486246
 30
0.0
 11
167.99605941312
 21
150.1260484486246
 31
0.0
  0
ARC
  5
9BE
330
21
100
AcDbEntity
  8
虚线
 62
    11
 48
0.15
370
    35
100
AcDbCircle
 10
167.99605941312
 20
153.8130563226403
 30
0.0
 40
3.687007874015747
100
AcDbArc
 50
270.0
 51
0.000000000000007
  0
ARC
  5
9BF
330
21
100
AcDbEntity
  8
虚线
 62
     3
 48
0.3
370
    35
100
AcDbCircle
 10
167.99605941312
 20
153.8130563226403
 30
0.0
 40
4.187007874015748
100
AcDbArc
 50
270.0
 51
0.000000000000007
  0
LINE
  5
9C0
330
21
100
AcDbEntity
  8
虚线
 62
     3
 48
0.3
370
    35
100
AcDbLine
 10
172.1830672871358
 20
153.8130563226403
 30
0.0
 11
172.1830672871358
 21
161.809469366914
 31
0.0
  0
LINE
  5
9C1
330
21
100
AcDbEntity
  8
虚线
 62
    11
 48
0.15
370
    35
100
AcDbLine
 10
171.6830672871358
 20
153.8130563226403
 30
0.0
 11
171.6830672871358
 21
161.809469366914
 31
0.0
  0
ARC
  5
9C2
330
21
100
AcDbEntity
  8
虚线
 62
    11
 48
0.15
370
    35
100
AcDbCircle
 10
160.5157444524901
 20
161.809469366914
 30
0.0
 40
6.049212598425196
100
AcDbArc
 50
102.1034488707457
 51
137.7991651942062
  0
ARC
  5
9C3
330
21
100
AcDbEntity
  8
虚线
 62
     3
 48
0.3
370
    35
100
AcDbCircle
 10
160.5157444524901
 20
161.809469366914
 30
0.0
 40
6.549212598425196
100
AcDbArc
 50
102.1034488707457
 51
136.0472455321986
  0
ARC
  5
9C4
330
21
100
AcDbEntity
  8
虚线
 62
     3
 48
0.3
370
    35
100
AcDbCircle
 10
163.0747995706003
 20
149.8760484486245
 30
0.0
 40
18.75393700787401
100
AcDbArc
 50
77.89655112925423
 51
102.1034488707457
  0
ARC
  5
9C5
330
21
100
AcDbEntity
  8
虚线
 62
     3
 48
0.3
370
    35
100
AcDbCircle
 10
165.6338546887106
 20
161.809469366914
 30
0.0
 40
6.549212598425196
100
AcDbArc
 50
0.000000000000007
 51
77.89655112925427
  0
ARC
  5
9C6
330
21
100
AcDbEntity
  8
虚线
 62
    11
 48
0.15
370
    35
100
AcDbCircle
 10
163.0747995706003
 20
149.8760484486245
 30
0.0
 40
18.25393700787401
100
AcDbArc
 50
77.89655112925423
 51
102.1034488707457
  0
ARC
  5
9C7
330
21
100
AcDbEntity
  8
虚线
 62
    11
 48
0.15
370
    35
100
AcDbCircle
 10
165.6338546887106
 20
161.809469366914
 30
0.0
 40
6.049212598425196
100
AcDbArc
 50
0.000000000000007
 51
77.89655112925427
  0
ARC
  5
9C8
330
21
100
AcDbEntity
  8
截面层
 62
     1
 48
0.2
370
    35
100
AcDbCircle
 10
145.7306336192806
 20
162.6521954016315
 30
0.0
 40
3.149606299212598
100
AcDbArc
 50
93.4497397408254
 51
176.5512609740523
  0
ARC
  5
9C9
330
21
100
AcDbEntity
  8
截面层
 62
     1
 48
0.2
370
    35
100
AcDbCircle
 10
147.6732247674507
 20
130.4272295509868
 30
0.0
 40
35.43307086614174
100
AcDbArc
 50
90.0
 51
93.44973974082614
  0
ARC
  5
9CA
330
21
100
AcDbEntity
  8
截面层
 62
     1
 48
0.2
370
    35
100
AcDbCircle
 10
225.1141696493405
 20
157.8681744328765
 30
0.0
 40
82.67716535433072
100
AcDbArc
 50
176.5512609740504
 51
183.4487390259495
  0
ARC
  5
9CB
330
21
100
AcDbEntity
  8
0
100
AcDbCircle
 10
149.6158159156208
 20
162.6521954016315
 30
0.0
 40
3.149606299212598
100
AcDbArc
 50
3.448739025948209
 51
86.55026025917667
  0
ARC
  5
9CC
330
21
100
AcDbEntity
  8
截面层
 62
     1
 48
0.2
370
    35
100
AcDbCircle
 10
145.7306336192806
 20
153.0841534641215
 30
0.0
 40
3.149606299212598
100
AcDbArc
 50
183.4487390259491
 51
266.5502602591746
  0
ARC
  5
9CD
330
21
100
AcDbEntity
  8
0
100
AcDbCircle
 10
70.23227988556095
 20
157.8681744328765
 30
0.0
 40
82.67716535433072
100
AcDbArc
 50
356.5512609740505
 51
3.448739025949531
  0
ARC
  5
9CE
330
21
100
AcDbEntity
  8
截面层
 62
     1
 48
0.2
370
    35
100
AcDbCircle
 10
147.6732247674507
 20
185.3091193147663
 30
0.0
 40
35.43307086614174
100
AcDbArc
 50
266.5502602591739
 51
270.0
  0
ARC
  5
9CF
330
21
100
AcDbEntity
  8
0
100
AcDbCircle
 10
149.6158159156208
 20
153.0841534641215
 30
0.0
 40
3.149606299212598
100
AcDbArc
 50
273.4497397408274
 51
356.5512609740513
  0
ARC
  5
9D0
330
21
100
AcDbEntity
  8
0
100
AcDbCircle
 10
163.0994058698129
 20
149.8760484486245
 30
0.0
 40
19.50393700787401
100
AcDbArc
 50
77.89655112925379
 51
102.1034488707458
  0
ARC
  5
9D1
330
21
100
AcDbEntity
  8
0
100
AcDbCircle
 10
160.5403507517027
 20
161.809469366914
 30
0.0
 40
7.299212598425204
100
AcDbArc
 50
102.1034488707459
 51
126.8795634063044
  0
ARC
  5
9D2
330
21
100
AcDbEntity
  8
0
100
AcDbCircle
 10
165.6584609879231
 20
161.809469366914
 30
0.0
 40
7.299212598425209
100
AcDbArc
 50
0.000000000000007
 51
77.89655112925308
  0
ARC
  5
9D3
330
21
100
AcDbEntity
  8
0
100
AcDbCircle
 10
153.7971021297523
 20
170.7973082911442
 30
0.0
 40
3.937007874015747
100
AcDbArc
 50
270.0
 51
306.8795634063052
  0
LINE
  5
9D4
330
21
100
AcDbEntity
  8
0
100
AcDbLine
 10
172.9576735863484
 20
161.809469366914
 30
0.0
 11
172.9576735863484
 21
153.8130563226403
 31
0.0
  0
LINE
  5
9D5
330
21
100
AcDbEntity
  8
0
100
AcDbLine
 10
145.6112168934349
 20
166.8603004171285
 30
0.0
 11
153.7971021297523
 21
166.8603004171285
 31
0.0
  0
ARC
  5
9D6
330
21
100
AcDbEntity
  8
0
100
AcDbCircle
 10
168.0206657123326
 20
153.8130563226403
 30
0.0
 40
4.937007874015804
100
AcDbArc
 50
270.0
 51
0.000000000000007
  0
ARC
  5
9D7
330
21
100
AcDbEntity
  8
0
100
AcDbCircle
 10
145.6112168934349
 20
162.7106941179159
 30
0.0
 40
4.149606299212598
100
AcDbArc
 50
90.0
 51
179.9999999999988
  0
LINE
  5
9D8
330
21
100
AcDbEntity
  8
0
100
AcDbLine
 10
168.0206657123326
 20
148.8760484486245
 30
0.0
 11
145.6112168934349
 21
148.8760484486246
 31
0.0
  0
LINE
  5
9D9
330
21
100
AcDbEntity
  8
0
100
AcDbLine
 10
141.4616105942223
 20
153.0256547478372
 30
0.0
 11
141.4616105942223
 21
162.710694117916
 31
0.0
  0
ARC
  5
9DA
330
21
100
AcDbEntity
  8
0
100
AcDbCircle
 10
145.6112168934349
 20
153.0256547478372
 30
0.0
 40
4.149606299212598
100
AcDbArc
 50
180.0
 51
270.0
  0
ARC
  5
9DB
330
21
100
AcDbEntity
  8
截面层
 62
     1
 48
0.2
370
    35
100
AcDbCircle
 10
165.6338546887106
 20
161.809469366914
 30
0.0
 40
6.299212598425196
100
AcDbArc
 50
0.000000000000007
 51
77.89655112925427
  0
LINE
  5
9DC
330
21
100
AcDbEntity
  8
截面层
 62
     1
 48
0.2
370
    35
100
AcDbLine
 10
171.9330672871358
 20
153.8130563226403
 30
0.0
 11
171.9330672871358
 21
161.809469366914
 31
0.0
  0
ARC
  5
9DD
330
21
100
AcDbEntity
  8
截面层
 62
     1
 48
0.2
370
    35
100
AcDbCircle
 10
163.0747995706003
 20
149.8760484486245
 30
0.0
 40
18.50393700787401
100
AcDbArc
 50
77.89655112925423
 51
102.1034488707457
  0
ARC
  5
9DE
330
21
100
AcDbEntity
  8
截面层
 62
     1
 48
0.2
370
    35
100
AcDbCircle
 10
167.99605941312
 20
153.8130563226403
 30
0.0
 40
3.937007874015747
100
AcDbArc
 50
270.0
 51
0.000000000000007
  0
ARC
  5
9DF
330
21
100
AcDbEntity
  8
截面层
 62
     1
 48
0.2
370
    35
100
AcDbCircle
 10
160.5157444524901
 20
161.809469366914
 30
0.0
 40
6.299212598425196
100
AcDbArc
 50
102.1034488707457
 51
136.898615356864
  0
LINE
  5
9E0
330
21
100
AcDbEntity
  8
截面层
 62
     1
 48
0.2
370
    35
100
AcDbLine
 10
147.6732247674507
 20
149.8760484486245
 30
0.0
 11
167.99605941312
 21
149.8760484486245
 31
0.0
  0
LINE
  5
9E1
330
21
100
AcDbEntity
  8
0
100
AcDbLine
 10
154.2165318540649
 20
161.809469366914
 30
0.0
 11
154.2165318540649
 21
153.8130563226403
 31
0.0
  0
ARC
  5
9E2
330
21
100
AcDbEntity
  8
0
100
AcDbCircle
 10
158.1535397280806
 20
153.8130563226403
 30
0.0
 40
3.937007874015747
100
AcDbArc
 50
180.0
 51
270.0
  0
LINE
  5
9E3
330
21
100
AcDbEntity
  8
中心线
 48
0.1
100
AcDbLine
 10
163.0747995706003
 20
165.6546971878567
 30
0.0
 11
163.0747995706003
 21
157.606198324311
 31
0.0
  0
LINE
  5
9E4
330
21
100
AcDbEntity
  8
中心线
 48
0.1
100
AcDbLine
 10
167.6023369412133
 20
161.6870720706718
 30
0.0
 11
158.5491532018211
 21
161.6870720706718
 31
0.0
  0
CIRCLE
  5
9E5
330
21
100
AcDbEntity
  8
0
100
AcDbCircle
 10
163.0757450715173
 20
161.6870720706718
 30
0.0
 40
1.771653543307085
  0
CIRCLE
  5
9E6
330
21
100
AcDbEntity
  8
0
100
AcDbCircle
 10
163.0757450715173
 20
161.6870720706718
 30
0.0
 40
2.165354330708659
  0
CIRCLE
  5
9E7
330
21
100
AcDbEntity
  8
0
100
AcDbCircle
 10
163.0757450715173
 20
161.6870720706718
 30
0.0
 40
2.283464566929133
  0
LINE
  5
9E8
330
21
100
AcDbEntity
  8
中心线
 48
0.1
100
AcDbLine
 10
147.6732247674507
 20
164.3161145106914
 30
0.0
 11
147.6732247674507
 21
156.2676156471457
 31
0.0
  0
LINE
  5
9E9
330
21
100
AcDbEntity
  8
中心线
 48
0.1
100
AcDbLine
 10
152.2007621380637
 20
160.3484893935064
 30
0.0
 11
143.1475783986714
 21
160.3484893935064
 31
0.0
  0
CIRCLE
  5
9EA
330
21
100
AcDbEntity
  8
0
100
AcDbCircle
 10
147.6741702683677
 20
160.3484893935064
 30
0.0
 40
1.771653543307085
  0
CIRCLE
  5
9EB
330
21
100
AcDbEntity
  8
0
100
AcDbCircle
 10
147.6741702683677
 20
160.3484893935064
 30
0.0
 40
2.165354330708659
  0
CIRCLE
  5
9EC
330
21
100
AcDbEntity
  8
0
100
AcDbCircle
 10
147.6741702683677
 20
160.3484893935064
 30
0.0
 40
2.283464566929133
  0
CIRCLE
  5
9F8
330
21
100
AcDbEntity
  8
0
100
AcDbCircle
 10
147.625743749748
 20
200.6318653213011
 30
0.0
 40
2.283464566929133
  0
CIRCLE
  5
9F9
330
21
100
AcDbEntity
  8
0
100
AcDbCircle
 10
147.625743749748
 20
200.6318653213011
 30
0.0
 40
2.165354330708659
  0
CIRCLE
  5
9FA
330
21
100
AcDbEntity
  8
0
100
AcDbCircle
 10
147.625743749748
 20
200.6318653213011
 30
0.0
 40
1.771653543307085
  0
LINE
  5
9FB
330
21
100
AcDbEntity
  8
中心线
 48
0.1
100
AcDbLine
 10
152.152335619444
 20
200.6318653213011
 30
0.0
 11
143.0991518800517
 21
200.6318653213011
 31
0.0
  0
LINE
  5
9FC
330
21
100
AcDbEntity
  8
中心线
 48
0.1
100
AcDbLine
 10
147.624798248831
 20
204.599490438486
 30
0.0
 11
147.624798248831
 21
196.5509915749403
 31
0.0
  0
CIRCLE
  5
9FD
330
21
100
AcDbEntity
  8
0
100
AcDbCircle
 10
163.0273185528976
 20
201.9704479984664
 30
0.0
 40
2.283464566929133
  0
CIRCLE
  5
9FE
330
21
100
AcDbEntity
  8
0
100
AcDbCircle
 10
163.0273185528976
 20
201.9704479984664
 30
0.0
 40
2.165354330708659
  0
CIRCLE
  5
9FF
330
21
100
AcDbEntity
  8
0
100
AcDbCircle
 10
163.0273185528976
 20
201.9704479984664
 30
0.0
 40
1.771653543307085
  0
LINE
  5
A00
330
21
100
AcDbEntity
  8
中心线
 48
0.1
100
AcDbLine
 10
167.5539104225936
 20
201.9704479984664
 30
0.0
 11
158.5007266832013
 21
201.9704479984664
 31
0.0
  0
LINE
  5
A01
330
21
100
AcDbEntity
  8
中心线
 48
0.1
100
AcDbLine
 10
163.0263730519805
 20
205.9380731156514
 30
0.0
 11
163.0263730519805
 21
197.8895742521057
 31
0.0
  0
DIMENSION
  5
A02
102
{ACAD_XDICTIONARY
360
A03
102
}
102
{ACAD_REACTORS
330
A04
102
}
330
21
100
AcDbEntity
  8
标注
100
AcDbDimension
  2
*D76
 10
175.7068199831119
 20
217.6687615607247
 30
0.0
 11
175.7068199831119
 21
222.6693876097655
 31
0.0
 70
    32
 71
     5
 42
10.00125209808163
  3
副本Standard
100
AcDbAlignedDimension
 13
172.9092470677285
 23
227.6700136588063
 33
0.0
 14
165.1484396169085
 24
217.6687615607247
 34
0.0
 50
90.0
100
AcDbRotatedDimension
  0
ARC
  5
A05
330
21
100
AcDbEntity
  8
截面层
100
AcDbCircle
 10
150.4976120334568
 20
222.6860804823306
 30
0.0
 40
2.0
100
AcDbArc
 50
272.5259513056426
 51
355.6419415045651
  0
ARC
  5
A06
330
21
100
AcDbEntity
  8
截面层
100
AcDbCircle
 10
144.7992672003605
 20
222.6860804823312
 30
0.0
 40
2.0
100
AcDbArc
 50
184.3580584954317
 51
267.4740486943116
  0
LINE
  5
A07
330
21
100
AcDbEntity
  8
0
100
AcDbLine
 10
149.8728490657276
 20
220.6608875449765
 30
0.0
 11
145.4240301680898
 21
220.6608875449765
 31
0.0
  0
LINE
  5
A08
330
21
100
AcDbEntity
  8
截面层
100
AcDbLine
 10
145.5300454158868
 20
220.4640371512758
 30
0.0
 11
145.4240301680898
 21
220.6608875449765
 31
0.0
  0
LINE
  5
A09
330
21
100
AcDbEntity
  8
截面层
100
AcDbLine
 10
149.7198941571183
 20
220.4640371512758
 30
0.0
 11
149.418586815192
 21
220.4640371512758
 31
0.0
  0
LINE
  5
A0A
330
21
100
AcDbEntity
  8
截面层
100
AcDbLine
 10
149.8728490657276
 20
220.6608875449765
 30
0.0
 11
149.7198941571183
 21
220.4640371512758
 31
0.0
  0
LINE
  5
A0B
330
21
100
AcDbEntity
  8
截面层
100
AcDbLine
 10
145.8782924186247
 20
220.4640371512758
 30
0.0
 11
145.5300454158868
 21
220.4640371512758
 31
0.0
  0
LINE
  5
A0C
330
21
100
AcDbEntity
  8
0
100
AcDbLine
 10
149.418586815192
 20
220.4640371512758
 30
0.0
 11
145.8782924186247
 21
220.4640371512758
 31
0.0
  0
LINE
  5
A0D
330
21
100
AcDbEntity
  8
中心线
 48
0.1
100
AcDbLine
 10
147.6484396169081
 20
223.1134787799312
 30
0.0
 11
147.6484396169085
 21
219.4179121445654
 31
0.0
  0
LINE
  5
A0E
102
{ACAD_REACTORS
330
A04
102
}
330
21
100
AcDbEntity
  8
0
100
AcDbLine
 10
165.1484396169086
 20
217.6687615607247
 30
0.0
 11
160.6996207192709
 21
217.6687615607247
 31
0.0
  0
LINE
  5
A0F
330
21
100
AcDbEntity
  8
截面层
100
AcDbLine
 10
160.8056359670679
 20
217.471911167024
 30
0.0
 11
160.6996207192709
 21
217.6687615607247
 31
0.0
  0
LINE
  5
A10
330
21
100
AcDbEntity
  8
截面层
100
AcDbLine
 10
164.9954847082995
 20
217.471911167024
 30
0.0
 11
164.6941773663731
 21
217.471911167024
 31
0.0
  0
LINE
  5
A11
330
21
100
AcDbEntity
  8
截面层
100
AcDbLine
 10
165.1484396169086
 20
217.6687615607247
 30
0.0
 11
164.9954847082995
 21
217.471911167024
 31
0.0
  0
LINE
  5
A12
330
21
100
AcDbEntity
  8
截面层
100
AcDbLine
 10
161.1538829698058
 20
217.471911167024
 30
0.0
 11
160.8056359670679
 21
217.471911167024
 31
0.0
  0
LINE
  5
A13
330
21
100
AcDbEntity
  8
0
100
AcDbLine
 10
164.6941773663731
 20
217.471911167024
 30
0.0
 11
161.1538829698058
 21
217.471911167024
 31
0.0
  0
LINE
  5
A14
330
21
100
AcDbEntity
  8
中心线
 48
0.1
100
AcDbLine
 10
162.9240301680892
 20
220.1213527956794
 30
0.0
 11
162.9240301680896
 21
216.4257861603136
 31
0.0
  0
ARC
  5
A15
330
21
100
AcDbEntity
  8
截面层
100
AcDbCircle
 10
156.5678640254532
 20
219.9936740258147
 30
0.0
 40
2.0
100
AcDbArc
 50
184.5129342122564
 51
263.6037459173348
  0
ARC
  5
A16
330
21
100
AcDbEntity
  8
截面层
100
AcDbCircle
 10
169.2801963107264
 20
219.9936740258146
 30
0.0
 40
2.0
100
AcDbArc
 50
276.3962540826653
 51
355.4870657877419
  0
DIMENSION
  5
A17
102
{ACAD_XDICTIONARY
360
A18
102
}
102
{ACAD_REACTORS
330
A19
102
}
330
21
100
AcDbEntity
  8
标注
100
AcDbDimension
  2
*D84
 10
178.1619254583369
 20
189.1594243764191
 30
0.0
 11
178.1619254583368
 21
199.4113928803562
 31
0.0
 70
    32
 71
     5
 42
20.5039370078741
  3
副本Standard
100
AcDbAlignedDimension
 13
163.0509793511931
 23
209.6633613842932
 33
0.0
 14
167.9722391937129
 24
189.1594243764191
 34
0.0
 50
90.0
100
AcDbRotatedDimension
  0
DIMENSION
  5
A1A
102
{ACAD_XDICTIONARY
360
A1B
102
}
102
{ACAD_REACTORS
330
A1C
102
}
330
21
100
AcDbEntity
  8
标注
100
AcDbDimension
  2
*D83
 10
175.7491845106914
 20
190.1594243764192
 30
0.0
 11
175.7491845106914
 21
199.4113928803562
 31
0.0
 70
    32
 71
     5
 42
18.50393700787404
  3
副本Standard
100
AcDbAlignedDimension
 13
163.0263730519805
 23
208.6633613842932
 33
0.0
 14
167.9476328945003
 24
190.1594243764192
 34
0.0
 50
90.0
100
AcDbRotatedDimension
  0
DIMENSION
  5
A1D
102
{ACAD_XDICTIONARY
360
A1E
102
}
102
{ACAD_REACTORS
330
A1F
102
}
330
21
100
AcDbEntity
  8
标注
100
AcDbDimension
  2
*D82
 10
141.4131840756025
 20
184.9228322830471
 30
0.0
 11
157.1612155716656
 21
184.9228322830471
 31
0.0
 70
   160
 71
     5
 42
31.49606299212611
  3
副本Standard
100
AcDbAlignedDimension
 13
172.9092470677286
 23
194.0964322504349
 33
0.0
 14
141.4131840756025
 24
193.3090306756318
 34
0.0
 50
180.0
100
AcDbRotatedDimension
  0
DIMENSION
  5
A20
102
{ACAD_XDICTIONARY
360
A21
102
}
102
{ACAD_REACTORS
330
A22
102
}
330
21
100
AcDbEntity
  8
标注
100
AcDbDimension
  2
*D81
 10
171.8846407685161
 20
187.0317865246787
 30
0.0
 11
163.0263730519805
 21
187.0317865246787
 31
0.0
 70
    32
 71
     5
 42
17.71653543307093
  3
副本Standard
100
AcDbAlignedDimension
 13
154.1681053354451
 23
194.0964322504349
 33
0.0
 14
171.8846407685161
 24
194.0964322504349
 34
0.0
 50
180.0
100
AcDbRotatedDimension
  0
DIMENSION
  5
A23
102
{ACAD_XDICTIONARY
360
A24
102
}
102
{ACAD_REACTORS
330
A25
102
}
330
21
100
AcDbEntity
  8
标注
100
AcDbDimension
  2
*D80
 10
142.3885777763901
 20
187.0000250198774
 30
0.0
 11
147.624798248831
 21
187.0000250198774
 31
0.0
 70
    32
 71
     5
 42
10.47244094488178
  3
副本Standard
100
AcDbAlignedDimension
 13
152.8610187212718
 23
198.1269440614586
 33
0.0
 14
142.3885777763901
 24
198.1515503606711
 34
0.0
 50
180.0
100
AcDbRotatedDimension
  0
DIMENSION
  5
A26
102
{ACAD_XDICTIONARY
360
A27
102
}
102
{ACAD_REACTORS
330
A28
102
}
330
21
100
AcDbEntity
  8
标注
100
AcDbDimension
  2
*D79
 10
136.0727831253153
 20
189.1594243764192
 30
0.0
 11
136.0727831253153
 21
198.1515503606712
 31
0.0
 70
    32
 71
     5
 42
17.98425196850397
  3
副本Standard
100
AcDbAlignedDimension
 13
145.5627903748152
 23
207.1436763449231
 33
0.0
 14
145.5627903748152
 24
189.1594243764192
 34
0.0
 50
90.0
100
AcDbRotatedDimension
  0
DIMENSION
  5
A29
102
{ACAD_XDICTIONARY
360
A2A
102
}
102
{ACAD_REACTORS
330
A2B
102
}
330
21
100
AcDbEntity
  8
标注
100
AcDbDimension
  2
*D78
 10
138.6771262195415
 20
190.1594243764192
 30
0.0
 11
138.6771262195415
 21
198.1515503606711
 31
0.0
 70
   160
 71
     5
 42
15.98425196850391
  3
副本Standard
100
AcDbAlignedDimension
 13
147.624798248831
 23
206.1436763449231
 33
0.0
 14
147.6247982488311
 24
190.1594243764192
 34
0.0
 50
90.0
100
AcDbRotatedDimension
  0
DIMENSION
  5
A2C
102
{ACAD_XDICTIONARY
360
A2D
102
}
102
{ACAD_REACTORS
330
A2E
102
}
330
21
100
AcDbEntity
  8
标注
100
AcDbDimension
  2
*D77
 10
138.8786534047216
 20
220.6608875449765
 30
0.0
 11
138.8786534047215
 21
224.1654506018913
 31
0.0
 70
    32
 71
     5
 42
7.009126113829494
  3
副本Standard
100
AcDbAlignedDimension
 13
141.4131840756025
 23
227.670013658806
 33
0.0
 14
145.7586758373794
 24
220.6608875449765
 34
0.0
 50
90.0
100
AcDbRotatedDimension
  0
REGION
  5
A2F
102
{ACAD_REACTORS
330
A28
330
A1F
330
A19
102
}
330
21
100
AcDbEntity
  8
0
100
AcDbModelerGeometry
 70
     1
  1
koo in n o          
  1
ni ^ *+0;:,4 ^ *+0\^ [ nh ^ LR nmqoqnqgmo QK o  
  1
n fqfffffffffffffffj:rooh n:rono 
  1
=0;& {rn {n {rn {rn |
  1
3*2/ {rn {rn {m {o |
  1
,7:33 {rn {rn {rn {l {rn {n |
  1
9><: {rn {rn {k {m {rn {j 90-(>-; ;0*=3: 0*+ |
  1
300/ {rn {rn {i {l |
  1
/3>1:r,*-9><: {rn njhqmnjgnmjffflonl nfgqijhihmffokooj o o o n roqolflhoohghkonjhkg o o -:):-,:@) V V V V |
  1
<0:;8: {rn {h {g {rn {f -:):-,:; {k {rn |
  1
<0:;8: {rn {no {i {rn {nn -:):-,:; {k {rn |
  1
<0:;8: {rn {i {nm {rn {nl -:):-,:; {k {rn |
  1
:;8: {rn {nk {nj {i {ni 90-(>-; |
  1
<0:;8: {rn {nh {h {rn {ng -:):-,:; {k {rn |
  1
:;8: {rn {nf {nk {h {mo 90-(>-; |
  1
<0:;8: {rn {g {mn {rn {mm -:):-,:; {k {rn |
  1
:;8: {rn {nj {ml {g {mk 90-(>-; |
  1
):-+:' {rn {f {mj |
  1
):-+:' {rn {f {mi |
  1
:336/,:r<*-): {rn nkjqjimhfolhkgnjmm nflqlofoloihjilngm o o o rn rkqnkfioimffmnmjfgm o o n V V |
  1
<0:;8: {rn {mh {no {rn {mg -:):-,:; {k {rn |
  1
:;8: {rn {mf {nf {no {lo 90-(>-; |
  1
):-+:' {rn {ng {ln |
  1
,+->687+r<*-): {rn nihqfhmmlfnflhnmgg ngfqnjfkmklhiknfmm o roqolflhoohghkonjhkg lqflnhnofjikkhmmik:rong o V V |
  1
<0:;8: {rn {nm {lm {rn {ll -:):-,:; {k {rn |
  1
:;8: {rn {ml {lk {nm {lj 90-(>-; |
  1
):-+:' {rn {nl {li |
  1
,+->687+r<*-): {rn nknqknlngkohjiomjk nflqlofoloihjilngm o o oqolflhoohghkonjhkg o V V |
  1
/061+ {rn nkjqjimhfolhkgnjmm ngfqnjfkmklhiknfmm o |
  1
/061+ {rn nknqknlngkohjiomjk nflqlofoloihjilngm o |
  1
<0:;8: {rn {lh {nh {rn {lg -:):-,:; {k {rn |
  1
:;8: {rn {lf {mf {nh {ko 90-(>-; |
  1
):-+:' {rn {mg {kn |
  1
:336/,:r<*-): {rn nihqfhmmlfnflhnmgg nfkqofiklmmjoklkfi o o o rn rkqflhoohghkonjgoj o o n V V |
  1
/061+ {rn nihqfhmmlfnflhnmgg ngfqnjfkmklhiknfnk o |
  1
<0:;8: {rn {mn {km {rn {kl 90-(>-; {k {rn |
  1
:;8: {rn {lk {kk {mn {kj 90-(>-; |
  1
):-+:' {rn {mm {ki |
  1
:336/,:r<*-): {rn nkjqjimhfolhkgnjmm momqffkohookjhnojk o o o rn rkqnkfioimffmnmjfgm o o n V V |
  1
/061+ {rn nknqknlngkohjiomjk momqffkohookjhnoil o |
  1
<0:;8: {rn {km {mh {rn {kh -:):-,:; {k {rn |
  1
:;8: {rn {kg {lf {mh {kf 90-(>-; |
  1
):-+:' {rn {lg {jo |
  1
,+->687+r<*-): {rn nhmqfofmkhoihhmgik momqofmgkjmfkhogh o o roqolflhoohghkonjhkg o V V |
  1
/061+ {rn nhmqfofmkhoihhmgik nfkqofiklmmjoklkfi o |
  1
<0:;8: {rn {lm {lh {rn {jn -:):-,:; {k {rn |
  1
:;8: {rn {jm {kk {lm {jl 90-(>-; |
  1
):-+:' {rn {ll {jk |
  1
,+->687+r<*-): {rn nkjqjimhfolhkgnjmm mohqnklihilkkfmlnn o oqolflhoohghkonjhkg rkqlojllikinhjhifff:ronh o V V |
  1
/061+ {rn nkjqjimhfolhkgnjmm mohqnklihilkkfmlnn o |
  1
:;8: {rn {jj {kg {lh {ji 90-(>-; |
  1
):-+:' {rn {kh {jh |
  1
:336/,:r<*-): {rn nijqinoolkkiflolk momqofmgkjmfkhogh o o o rn rhqmffmnmjfgkmjmofi o o n V V |
  1
/061+ {rn nhmqfofmkhoihhmgik momqofmgkjmfkhogh o |
  1
:;8: {rn {jm {jj {km {jg 90-(>-; |
  1
):-+:' {rn {kl {jf |
  1
:336/,:r<*-): {rn njlqhkgihjinnnlmil mnnqogoigkmngflggh o o o rn rlqflhoohghkonjhkgn o o n V V |
  1
/061+ {rn njlqhkgihjinnnlmil mohqnklihilkkfmlnn o |
  1
):-+:' {rn {jn {io |
  1
:336/,:r<*-): {rn nilqojofhfljnnflng nfoqnjfkmklhiknfm o o o rn rnfqjolflhoohghkonn o o n V V |
  1
/061+ {rn nihqnkojnkjlomilii mofqmmfgoofonfifjj o |
  1
:336/,:r<*-): {rn nioqkfnfmkmllogmfj momqofmgkjmfkhogh o o o rn rhqmffmnmjfgkmjmojm o o n V V |
  1
/061+ {rn njiqnnnknnilgkkkfn mohqflnkhikiiflnii o |
  1
/061+ {rn njgqfinkkknhmnmmgn mofqmmfgoofonfifin o |
  0
LINE
  5
A30
330
21
100
AcDbEntity
  8
0
100
AcDbLine
 10
153.0656478006488
 20
227.6700136588061
 30
0.0
 11
142.1869010163305
 21
227.670013658806
 31
0.0
  0
LINE
  5
A31
330
21
100
AcDbEntity
  8
0
100
AcDbLine
 10
171.9791482783261
 20
227.6700136588063
 30
0.0
 11
153.8689120578536
 21
227.6700136588061
 31
0.0
  0
ARC
  5
A32
330
21
100
AcDbEntity
  8
截面层
100
AcDbCircle
 10
147.3137939476191
 20
279.6857616903021
 30
0.0
 40
59.05511811023622
100
AcDbArc
 50
267.4740486943108
 51
268.1662219999968
  0
ARC
  5
A33
330
21
100
AcDbEntity
  8
截面层
100
AcDbCircle
 10
142.2312314331686
 20
227.4731632651052
 30
0.0
 40
0.1968503937007874
100
AcDbArc
 50
4.808045201226994
 51
90.0
  0
ARC
  5
A34
330
21
100
AcDbEntity
  8
截面层
100
AcDbCircle
 10
153.0656478006488
 20
227.4731632651053
 30
0.0
 40
0.1968503937007874
100
AcDbArc
 50
90.0
 51
175.191954798773
  0
ARC
  5
A35
330
21
100
AcDbEntity
  8
截面层
100
AcDbCircle
 10
153.8689120578536
 20
227.4731632651053
 30
0.0
 40
0.1968503937007874
100
AcDbArc
 50
0.000000000000007
 51
90.0
  0
ARC
  5
A36
330
21
100
AcDbEntity
  8
截面层
100
AcDbCircle
 10
171.9791482783261
 20
227.4731632651055
 30
0.0
 40
0.1968503937007874
100
AcDbArc
 50
90.0
 51
180.0
  0
ARC
  5
A37
330
21
100
AcDbEntity
  8
截面层
100
AcDbCircle
 10
147.9830852862448
 20
279.6857616903037
 30
0.0
 40
59.05511811023622
100
AcDbArc
 50
271.8337780000033
 51
272.5259513056424
  0
LINE
  5
A38
330
21
100
AcDbEntity
  8
截面层
100
AcDbLine
 10
142.4273891299759
 20
227.489662825204
 30
0.0
 11
142.8050499108678
 21
222.5341021868799
 31
0.0
  0
LINE
  5
A39
330
21
100
AcDbEntity
  8
截面层
100
AcDbLine
 10
152.8694901038416
 20
227.4896628252041
 30
0.0
 11
152.4918293229495
 21
222.5341021868793
 31
0.0
  0
ARC
  5
A3A
330
21
100
AcDbEntity
  8
截面层
100
AcDbCircle
 10
163.9260047038125
 20
287.5862884821546
 30
0.0
 40
69.99192899488185
100
AcDbArc
 50
263.7819952762675
 51
267.3579280080622
  0
ARC
  5
A3B
102
{ACAD_REACTORS
330
A04
102
}
330
21
100
AcDbEntity
  8
截面层
100
AcDbCircle
 10
161.922055632368
 20
287.5862884821442
 30
0.0
 40
69.99192899487134
100
AcDbArc
 50
272.6420719919375
 51
276.2180047237328
  0
LINE
  5
A3C
330
21
100
AcDbEntity
  8
截面层
100
AcDbLine
 10
154.0657624515544
 20
227.2763128714048
 30
0.0
 11
154.0657624515544
 21
227.4731632651053
 31
0.0
  0
LINE
  5
A3D
330
21
100
AcDbEntity
  8
截面层
100
AcDbLine
 10
171.7822978846253
 20
227.4731632651055
 30
0.0
 11
171.7822978846253
 21
227.2763128714047
 31
0.0
  0
LINE
  5
A3E
330
21
100
AcDbEntity
  8
截面层
100
AcDbLine
 10
154.0657624515544
 20
227.2763128714047
 30
0.0
 11
154.574064832223
 21
219.8363057409715
 31
0.0
  0
LINE
  5
A3F
330
21
100
AcDbEntity
  8
截面层
100
AcDbLine
 10
171.7822978846253
 20
227.2763128714047
 30
0.0
 11
171.2739955039566
 21
219.8363057409714
 31
0.0
  0
LINE
  5
A40
102
{ACAD_REACTORS
330
A2E
102
}
330
21
100
AcDbEntity
  8
截面层
100
AcDbLine
 10
142.2312314331686
 20
227.670013658806
 30
0.0
 11
141.4131840756025
 21
227.670013658806
 31
0.0
  0
LINE
  5
A41
330
21
100
AcDbEntity
  8
截面层
100
AcDbLine
 10
153.8689120578536
 20
227.6700136588061
 30
0.0
 11
153.0656478006488
 21
227.6700136588061
 31
0.0
  0
LINE
  5
A42
102
{ACAD_REACTORS
330
A04
102
}
330
21
100
AcDbEntity
  8
截面层
100
AcDbLine
 10
172.9092470677285
 20
227.6700136588063
 30
0.0
 11
171.787199823634
 21
227.6700136588063
 31
0.0
  0
REGION
  5
A43
102
{ACAD_REACTORS
330
A2B
330
A25
330
975
102
}
330
21
100
AcDbEntity
  8
0
100
AcDbModelerGeometry
 70
     1
  1
koo ki n o          
  1
ni ^ *+0;:,4 ^ *+0\^ [ nh ^ LR nmqoqnqgmo QK o  
  1
n fqfffffffffffffffj:rooh n:rono 
  1
=0;& {rn {n {rn {rn |
  1
3*2/ {rn {rn {m {o |
  1
,7:33 {rn {rn {rn {l {rn {n |
  1
9><: {rn {rn {k {m {rn {j 90-(>-; ;0*=3: 0*+ |
  1
300/ {rn {rn {i {l |
  1
/3>1:r,*-9><: {rn nkhqimkhfgmkgglofg nfgqnjnjjolioihnnh o o o n hqmlnfmhmgiljmimnm:rong roqolflhoohghkonjhkg o -:):-,:@) V V V V |
  1
<0:;8: {rn {h {g {rn {f -:):-,:; {k {rn |
  1
<0:;8: {rn {no {i {rn {nn -:):-,:; {k {rn |
  1
<0:;8: {rn {i {nm {rn {nl -:):-,:; {k {rn |
  1
:;8: {rn {nk {nj {i {ni 90-(>-; |
  1
<0:;8: {rn {nh {h {rn {ng -:):-,:; {k {rn |
  1
:;8: {rn {nf {nk {h {mo 90-(>-; |
  1
<0:;8: {rn {g {mn {rn {mm -:):-,:; {k {rn |
  1
:;8: {rn {nj {ml {g {mk 90-(>-; |
  1
):-+:' {rn {f {mj |
  1
):-+:' {rn {f {mi |
  1
:336/,:r<*-): {rn nkfqjihlgflfhoonog nflqlihjmflfnfninj o o o rn jqhgjjkngmfogmofhm:roni rlqnkfioimffmnmjfgm o n V V |
  1
<0:;8: {rn {mh {no {rn {mg -:):-,:; {k {rn |
  1
:;8: {rn {mf {nf {no {lo 90-(>-; |
  1
):-+:' {rn {ng {ln |
  1
:336/,:r<*-): {rn hoqnglgjlliifknmoh nfgqnjnjjolioihnnk o o o rn nqjnghokhlonlkojoi:ronk rgmqihhnijljkllohnn o n V V |
  1
<0:;8: {rn {nm {mh {rn {lm -:):-,:; {k {rn |
  1
:;8: {rn {ml {ll {nm {lk 90-(>-; |
  1
):-+:' {rn {nl {lj |
  1
:336/,:r<*-): {rn nkhqimkhfgmkgglofg mmjqjfmkfjmkmjiofh o o o rn iqjoghlkjjhhnhljfj:ronj rljqkllohogiinknhll o n V V |
  1
/061+ {rn njmqhnnmfngnkolloh nflqnhgoilmnkfljg o |
  1
/061+ {rn nkfqhjifnokgkimhj nfoqmmlilomgkjlim o |
  1
<0:;8: {rn {mn {nh {rn {li -:):-,:; {k {rn |
  1
:;8: {rn {lh {mf {nh {lg 90-(>-; |
  1
):-+:' {rn {mg {lf |
  1
:336/,:r<*-): {rn nkfqjihlgflfhoonog momqfljjhnlmfkming o o o rn jqhgjjkngmfogmofhm:roni rlqnkfioimffmnmjfgm o n V V |
  1
/061+ {rn njmqhnnmfngnkolloh molqnmjolhjoikoij o |
  1
:;8: {rn {ll {ko {mn {kn 90-(>-; |
  1
):-+:' {rn {mm {km |
  1
:336/,:r<*-): {rn nkjqigmmohnooiiogf nflqlihjmflfnfninj o o o rn jqhgjjkngmfogmofhm:roni rlqnkfioimffmnmjfgm o n V V |
  1
/061+ {rn nkjqkfmigionlolkjf nfoqmmlilomgkjlim o |
  1
:;8: {rn {ko {lh {mh {kl 90-(>-; |
  1
):-+:' {rn {li {kk |
  1
:336/,:r<*-): {rn nkhqimkhfgmkgglofg nhoqhnoiojkhghgnlf o o o rn iqjoghlkjjhhnhljfj:ronj rljqkllohogiinknhll o n V V |
  1
/061+ {rn nkfqhjifnokgkimhmh moiqohfkhokligoin o |
  1
):-+:' {rn {lm {kj |
  1
:336/,:r<*-): {rn mmjqoijhklnlohmohi nfgqnjnjjolioihnnh o o o rn nqjnghokhlonlkojoi:ronk rgmqihhnijljkllohnn o n V V |
  1
/061+ {rn nkmqjlglokiglimggf nflqnhgoilmnkfljhg o |
  1
:336/,:r<*-): {rn nkjqigmmohnooiiogf momqfljjhnlmfkming o o o rn jqhgjjkngmfogmofhm:roni rlqnkfioimffmnmjfgm o n V V |
  1
/061+ {rn nkjqkfmigionlolkjf moiqohfkhokligoin o |
  1
/061+ {rn nkmqjlglokiglimggf molqnmjolhjoikoikh o |
  0
REGION
  5
A44
102
{ACAD_REACTORS
330
A1C
330
981
330
97B
330
978
330
97E
330
A22
102
}
330
21
100
AcDbEntity
  8
0
100
AcDbModelerGeometry
 70
     1
  1
koo ki n o          
  1
ni ^ *+0;:,4 ^ *+0\^ [ nh ^ LR nmqoqnqgmo QK o  
  1
n fqfffffffffffffffj:rooh n:rono 
  1
=0;& {rn {n {rn {rn |
  1
3*2/ {rn {rn {m {o |
  1
,7:33 {rn {rn {rn {l {rn {n |
  1
9><: {rn {rn {k {m {rn {j 90-(>-; ;0*=3: 0*+ |
  1
300/ {rn {rn {i {l |
  1
/3>1:r,*-9><: {rn nilqomilhlojnfgoin nfgqfkkmlfominmkig o o o n roqolflhoohghkonjhkg o o -:):-,:@) V V V V |
  1
<0:;8: {rn {h {g {rn {f -:):-,:; {k {rn |
  1
<0:;8: {rn {no {i {rn {nn 90-(>-; {k {rn |
  1
<0:;8: {rn {i {nm {rn {nl 90-(>-; {k {rn |
  1
:;8: {rn {nk {nj {i {ni 90-(>-; |
  1
<0:;8: {rn {nh {h {rn {ng -:):-,:; {k {rn |
  1
:;8: {rn {nk {nf {h {mo 90-(>-; |
  1
<0:;8: {rn {g {mn {rn {mm -:):-,:; {k {rn |
  1
:;8: {rn {ml {nj {g {mk 90-(>-; |
  1
):-+:' {rn {f {mj |
  1
):-+:' {rn {f {mi |
  1
:336/,:r<*-): {rn njgqnojnnlmofkiofn nfkqofiklmmjoklkfi o o o rn rlqflhoohghkonjhkgn o o n V V |
  1
<0:;8: {rn {mh {no {rn {mg 90-(>-; {k {rn |
  1
:;8: {rn {mf {nf {no {lo 90-(>-; |
  1
):-+:' {rn {ng {ln |
  1
,+->687+r<*-): {rn njgqnojnnlmofkiofn nfoqnjfkmklhiknfm o oqolflhoohghkonjhkg nqhfolklfonnmhgnog:ronh o V V |
  1
<0:;8: {rn {nm {mh {rn {lm -:):-,:; {k {rn |
  1
:;8: {rn {ml {ll {nm {lk 90-(>-; |
  1
):-+:' {rn {nl {lj |
  1
,+->687+r<*-): {rn njkqnignojlljkkjnj momqofmgkjmfkhogh o o roqolflhoohghkonjhkg o V V |
  1
/061+ {rn njgqnojnnlmofkiofn nfoqnjfkmklhiknfm o |
  1
/061+ {rn njkqnignojlljkkjnj nfkqofiklmmjoklkfi o |
  1
<0:;8: {rn {mn {nh {rn {li -:):-,:; {k {rn |
  1
:;8: {rn {mf {lh {nh {lg 90-(>-; |
  1
):-+:' {rn {mg {lf |
  1
:336/,:r<*-): {rn nihqfkhilmgfkjoolm nfkqofiklmmjoklkfi o o o rn rlqflhoohghkonjhkgn o o n V V |
  1
/061+ {rn nihqfkhilmgfkjoolm nfoqnjfkmklhiknfm o |
  1
:;8: {rn {ll {ko {mn {kn 90-(>-; |
  1
):-+:' {rn {mm {km |
  1
:336/,:r<*-): {rn nioqkihlnhfllgholf momqofmgkjmfkhogh o o o rn riqmffmnmjfgkmjnfil o o n V V |
  1
/061+ {rn njkqnignojlljkkjnj momqofmgkjmfkhogh o |
  1
:;8: {rn {ko {lh {mh {kl 90-(>-; |
  1
):-+:' {rn {li {kk |
  1
,+->687+r<*-): {rn nhnqggkikohigjniog nfkqofiklmmjoklkfi o rnqnonglhkhllfklikj:ronh oqolflhoohghkonjhkg o V V |
  1
/061+ {rn nhnqggkikohigjniog nfkqofiklmmjoklkfi o |
  1
):-+:' {rn {lm {kj |
  1
:336/,:r<*-): {rn nilqomilhlojnfgoin nfoqnjfkmklhiknfm o o o rn rngqjolflhoohghkonj o o n V V |
  1
/061+ {rn njfqnkijnjmfmmijnm mogqmjmolomgkhfljf o |
  1
:336/,:r<*-): {rn nijqjgjkmgnhoofogk momqofmgkjmfkhogh o o o rn riqmffmnmjfgkmjnfil o o n V V |
  1
/061+ {rn nhnqggkikohigjniog momqofmgkjmfkhogh o |
  1
/061+ {rn niiqfoimlognnifin mogqmjmolomgkhfljf o |
  0
ENDSEC
  0
SECTION
  2
OBJECTS
  0
DICTIONARY
  5
C
330
0
100
AcDbDictionary
281
     1
  3
ACAD_COLOR
350
1C
  3
ACAD_GROUP
350
D
  3
ACAD_LAYOUT
350
1A
  3
ACAD_MATERIAL
350
1B
  3
ACAD_MLEADERSTYLE
350
C16
  3
ACAD_MLINESTYLE
350
17
  3
ACAD_PLOTSETTINGS
350
19
  3
ACAD_PLOTSTYLENAME
350
E
  3
ACAD_SCALELIST
350
BF4
  3
ACAD_TABLESTYLE
350
BF2
  3
ACAD_VISUALSTYLE
350
BE1
  3
ACDB_RECOMPOSE_DATA
350
C46
  3
AcDbVariableDictionary
350
C3C
  3
DWGPROPS
350
C47
  3
lxx_dict
350
C1C
  0
DICTIONARY
  5
F7
330
2
100
AcDbDictionary
280
     1
281
     1
  3
ACAD_LAYERSTATES
360
F8
  0
DICTIONARY
  5
C32
330
10
100
AcDbDictionary
280
     1
281
     1
  3
ADSK_XREC_LAYER_RECONCILED
360
C33
  0
DICTIONARY
  5
C34
330
EF
100
AcDbDictionary
280
     1
281
     1
  3
ADSK_XREC_LAYER_RECONCILED
360
C35
  0
DICTIONARY
  5
C36
330
F0
100
AcDbDictionary
280
     1
281
     1
  3
ADSK_XREC_LAYER_RECONCILED
360
C37
  0
DICTIONARY
  5
C38
330
F2
100
AcDbDictionary
280
     1
281
     1
  3
ADSK_XREC_LAYER_RECONCILED
360
C39
  0
DICTIONARY
  5
C3A
330
F3
100
AcDbDictionary
280
     1
281
     1
  3
ADSK_XREC_LAYER_RECONCILED
360
C3B
  0
DICTIONARY
  5
974
330
973
100
AcDbDictionary
280
     1
281
     1
  3
ACAD_DIMASSOC
360
975
  0
DICTIONARY
  5
977
330
976
100
AcDbDictionary
280
     1
281
     1
  3
ACAD_DIMASSOC
360
978
  0
DICTIONARY
  5
97A
330
979
100
AcDbDictionary
280
     1
281
     1
  3
ACAD_DIMASSOC
360
97B
  0
DICTIONARY
  5
97D
330
97C
100
AcDbDictionary
280
     1
281
     1
  3
ACAD_DIMASSOC
360
97E
  0
DICTIONARY
  5
980
330
97F
100
AcDbDictionary
280
     1
281
     1
  3
ACAD_DIMASSOC
360
981
  0
DICTIONARY
  5
A03
330
A02
100
AcDbDictionary
280
     1
281
     1
  3
ACAD_DIMASSOC
360
A04
  0
DICTIONARY
  5
A18
330
A17
100
AcDbDictionary
280
     1
281
     1
  3
ACAD_DIMASSOC
360
A19
  0
DICTIONARY
  5
A1B
330
A1A
100
AcDbDictionary
280
     1
281
     1
  3
ACAD_DIMASSOC
360
A1C
  0
DICTIONARY
  5
A1E
330
A1D
100
AcDbDictionary
280
     1
281
     1
  3
ACAD_DIMASSOC
360
A1F
  0
DICTIONARY
  5
A21
330
A20
100
AcDbDictionary
280
     1
281
     1
  3
ACAD_DIMASSOC
360
A22
  0
DICTIONARY
  5
A24
330
A23
100
AcDbDictionary
280
     1
281
     1
  3
ACAD_DIMASSOC
360
A25
  0
DICTIONARY
  5
A27
330
A26
100
AcDbDictionary
280
     1
281
     1
  3
ACAD_DIMASSOC
360
A28
  0
DICTIONARY
  5
A2A
330
A29
100
AcDbDictionary
280
     1
281
     1
  3
ACAD_DIMASSOC
360
A2B
  0
DICTIONARY
  5
A2D
330
A2C
100
AcDbDictionary
280
     1
281
     1
  3
ACAD_DIMASSOC
360
A2E
  0
DICTIONARY
  5
1C
102
{ACAD_REACTORS
330
C
102
}
330
C
100
AcDbDictionary
281
     1
  0
DICTIONARY
  5
D
102
{ACAD_REACTORS
330
C
102
}
330
C
100
AcDbDictionary
281
     1
  0
DICTIONARY
  5
1A
102
{ACAD_REACTORS
330
C
102
}
330
C
100
AcDbDictionary
281
     1
  3
Model
350
24
  3
布局1
350
20
  3
布局2
350
28
  0
DICTIONARY
  5
1B
102
{ACAD_REACTORS
330
C
102
}
330
C
100
AcDbDictionary
281
     1
  3
ByBlock
350
BD1
  3
ByLayer
350
BC9
  3
Global
350
BD9
  0
DICTIONARY
  5
C16
102
{ACAD_REACTORS
330
C
102
}
330
C
100
AcDbDictionary
281
     1
  3
Standard
350
C17
  0
DICTIONARY
  5
17
102
{ACAD_REACTORS
330
C
102
}
330
C
100
AcDbDictionary
281
     1
  3
Standard
350
18
  0
DICTIONARY
  5
19
102
{ACAD_REACTORS
330
C
102
}
330
C
100
AcDbDictionary
281
     1
  0
ACDBDICTIONARYWDFLT
  5
E
102
{ACAD_REACTORS
330
C
102
}
330
C
100
AcDbDictionary
281
     1
  3
Normal
350
F
100
AcDbDictionaryWithDefault
340
F
  0
DICTIONARY
  5
BF4
102
{ACAD_REACTORS
330
C
102
}
330
C
100
AcDbDictionary
281
     1
  3
A0
350
BF5
  3
A1
350
BF6
  3
A2
350
BF7
  3
A3
350
BF8
  3
A4
350
BF9
  3
A5
350
BFA
  3
A6
350
BFB
  3
A7
350
BFC
  3
A8
350
BFD
  3
A9
350
BFE
  3
B0
350
BFF
  3
B1
350
C00
  3
B2
350
C01
  3
B3
350
C02
  3
B4
350
C03
  3
B5
350
C04
  3
B6
350
C05
  3
B7
350
C06
  3
B8
350
C07
  3
B9
350
C08
  3
C0
350
C09
  3
C1
350
C0A
  3
C2
350
C0B
  3
C3
350
C0C
  3
C4
350
C0D
  3
C5
350
C0E
  3
C6
350
C0F
  3
C7
350
C10
  3
C8
350
C11
  3
C9
350
C12
  3
D0
350
C13
  3
D1
350
C14
  3
D2
350
C15
  0
DICTIONARY
  5
BF2
102
{ACAD_REACTORS
330
C
102
}
330
C
100
AcDbDictionary
281
     1
  3
Standard
350
BF3
  0
DICTIONARY
  5
BE1
102
{ACAD_REACTORS
330
C
102
}
330
C
100
AcDbDictionary
281
     1
  3
2dWireframe
350
BE7
  3
3D Hidden
350
BE9
  3
3dWireframe
350
BE8
  3
Basic
350
BE6
  3
Brighten
350
BED
  3
ColorChange
350
BF1
  3
Conceptual
350
BEA
  3
Dim
350
BEC
  3
Facepattern
350
BF0
  3
Flat
350
BE2
  3
FlatWithEdges
350
BE3
  3
Gouraud
350
BE4
  3
GouraudWithEdges
350
BE5
  3
Linepattern
350
BEF
  3
Realistic
350
BEB
  3
Thicken
350
BEE
  0
XRECORD
  5
C46
102
{ACAD_REACTORS
330
C
102
}
330
C
100
AcDbXrecord
280
     1
 90
        1
330
BF3
  0
DICTIONARY
  5
C3C
102
{ACAD_REACTORS
330
C
102
}
330
C
100
AcDbDictionary
281
     1
  3
CANNOSCALE
350
C3F
  3
CMLEADERSTYLE
350
C3E
  3
CTABLESTYLE
350
C3D
  3
DIMASSOC
350
C43
  3
HIDETEXT
350
C42
  3
INDEXCTL
350
C41
  3
SORTENTS
350
C40
  0
XRECORD
  5
C47
102
{ACAD_REACTORS
330
C
102
}
330
C
100
AcDbXrecord
280
     1
  1
DWGPROPS COOKIE
  2

  3

  4

  6

  7

  8
Administrator
  9

300
=
301
=
302
=
303
=
304
=
305
=
306
=
307
=
308
=
309
=
 40
0.0390893402777778
 41
2455855.628782743
 42
2458650.396471528
  1

 90
        0
  0
DICTIONARY
  5
C1C
102
{ACAD_REACTORS
330
C
102
}
330
C
100
AcDbDictionary
281
     1
  3
lxx_dimth
350
C1D
  0
DICTIONARY
  5
F8
102
{ACAD_REACTORS
330
F7
102
}
330
F7
100
AcDbDictionary
281
     1
  0
XRECORD
  5
C33
102
{ACAD_REACTORS
330
C32
102
}
330
C32
100
AcDbXrecord
280
     1
290
     1
  0
XRECORD
  5
C35
102
{ACAD_REACTORS
330
C34
102
}
330
C34
100
AcDbXrecord
280
     1
290
     1
  0
XRECORD
  5
C37
102
{ACAD_REACTORS
330
C36
102
}
330
C36
100
AcDbXrecord
280
     1
290
     1
  0
XRECORD
  5
C39
102
{ACAD_REACTORS
330
C38
102
}
330
C38
100
AcDbXrecord
280
     1
290
     1
  0
XRECORD
  5
C3B
102
{ACAD_REACTORS
330
C3A
102
}
330
C3A
100
AcDbXrecord
280
     1
290
     1
  0
DIMASSOC
  5
975
102
{ACAD_REACTORS
330
974
102
}
330
974
100
AcDbDimAssoc
330
973
 90
        2
 70
     0
 71
     0
  1
AcDbOsnapPointRef
 72
     3
331
A43
 73
     2
 91
        1
 40
0.0
 10
0.0
 20
0.0
 30
0.0
 75
     0
  0
DIMASSOC
  5
978
102
{ACAD_REACTORS
330
977
102
}
330
977
100
AcDbDimAssoc
330
976
 90
        2
 70
     0
 71
     0
  1
AcDbOsnapPointRef
 72
     3
331
A44
 73
     2
 91
        3
 40
0.0
 10
0.0
 20
0.0
 30
0.0
 75
     0
  0
DIMASSOC
  5
97B
102
{ACAD_REACTORS
330
97A
102
}
330
97A
100
AcDbDimAssoc
330
979
 90
        2
 70
     0
 71
     0
  1
AcDbOsnapPointRef
 72
     3
331
A44
 73
     2
 91
        7
 40
0.0
 10
0.0
 20
0.0
 30
0.0
 75
     0
  0
DIMASSOC
  5
97E
102
{ACAD_REACTORS
330
97D
102
}
330
97D
100
AcDbDimAssoc
330
97C
 90
        2
 70
     0
 71
     0
  1
AcDbOsnapPointRef
 72
     3
331
A44
 73
     2
 91
        4
 40
0.0
 10
0.0
 20
0.0
 30
0.0
 75
     0
  0
DIMASSOC
  5
981
102
{ACAD_REACTORS
330
980
102
}
330
980
100
AcDbDimAssoc
330
97F
 90
        2
 70
     0
 71
     0
  1
AcDbOsnapPointRef
 72
     3
331
A44
 73
     2
 91
        5
 40
0.0
 10
0.0
 20
0.0
 30
0.0
 75
     0
  0
DIMASSOC
  5
A04
102
{ACAD_REACTORS
330
A03
102
}
330
A03
100
AcDbDimAssoc
330
A02
 90
        3
 70
     0
 71
     0
  1
AcDbOsnapPointRef
 72
    13
331
A42
 73
     2
 91
        0
 40
0.0
 10
0.0
 20
0.0
 30
2.000000000000000E+50
 75
     0
  1
AcDbOsnapPointRef
 72
    11
331
A0E
 73
     2
 91
        0
 40
0.0
 10
0.0
 20
0.0
 30
0.0
332
A3B
 74
     2
 92
        0
 75
     0
  0
DIMASSOC
  5
A19
102
{ACAD_REACTORS
330
A18
102
}
330
A18
100
AcDbDimAssoc
330
A17
 90
        3
 70
     0
 71
     0
  1
AcDbOsnapPointRef
 72
     2
331
A2F
 73
     2
 91
        7
 40
1.570796326794897
 10
0.0
 20
0.0
 30
0.0
 75
     0
  1
AcDbOsnapPointRef
 72
     1
331
A2F
 73
     2
 91
       10
 40
4.712388980384688
 10
0.0
 20
0.0
 30
2.000000000000000E+50
 75
     0
  0
DIMASSOC
  5
A1C
102
{ACAD_REACTORS
330
A1B
102
}
330
A1B
100
AcDbDimAssoc
330
A1A
 90
        2
 70
     0
 71
     0
  1
AcDbOsnapPointRef
 72
     1
331
A44
 73
     2
 91
        7
 40
4.712388980384688
 10
0.0
 20
0.0
 30
2.000000000000000E+50
 75
     0
  0
DIMASSOC
  5
A1F
102
{ACAD_REACTORS
330
A1E
102
}
330
A1E
100
AcDbDimAssoc
330
A1D
 90
        3
 70
     0
 71
     0
  1
AcDbOsnapPointRef
 72
     1
331
A2F
 73
     2
 91
        9
 40
1.0
 10
0.0
 20
0.0
 30
2.000000000000000E+50
 75
     0
  1
AcDbOsnapPointRef
 72
    13
331
A2F
 73
     2
 91
        2
 40
0.0
 10
0.0
 20
0.0
 30
2.000000000000000E+50
 75
     0
  0
DIMASSOC
  5
A22
102
{ACAD_REACTORS
330
A21
102
}
330
A21
100
AcDbDimAssoc
330
A20
 90
        3
 70
     0
 71
     0
  1
AcDbOsnapPointRef
 72
     1
331
A44
 73
     2
 91
        1
 40
6.283185307179585
 10
0.0
 20
0.0
 30
2.000000000000000E+50
 75
     0
  1
AcDbOsnapPointRef
 72
     8
331
A44
 73
     2
 91
        6
 40
0.0000000000000011
 10
0.0
 20
0.0
 30
0.0
 75
     1
  1
AcDbOsnapPointRef
 72
     1
331
A44
 73
     2
 91
        1
 40
6.283185307179585
 10
0.0
 20
0.0
 30
2.000000000000000E+50
 75
     0
  0
DIMASSOC
  5
A25
102
{ACAD_REACTORS
330
A24
102
}
330
A24
100
AcDbDimAssoc
330
A23
 90
        2
 70
     0
 71
     0
  1
AcDbOsnapPointRef
 72
     2
331
A43
 73
     2
 91
        4
 40
6.283185307179584
 10
0.0
 20
0.0
 30
0.0
 75
     0
  0
DIMASSOC
  5
A28
102
{ACAD_REACTORS
330
A27
102
}
330
A27
100
AcDbDimAssoc
330
A26
 90
        3
 70
     0
 71
     0
  1
AcDbOsnapPointRef
 72
     1
331
A2F
 73
     2
 91
        3
 40
1.570796326794896
 10
0.0
 20
0.0
 30
2.000000000000000E+50
 75
     0
  1
AcDbOsnapPointRef
 72
    13
331
A2F
 73
     2
 91
        1
 40
4.712388980384688
 10
0.0
 20
0.0
 30
2.000000000000000E+50
 75
     0
  0
DIMASSOC
  5
A2B
102
{ACAD_REACTORS
330
A2A
102
}
330
A2A
100
AcDbDimAssoc
330
A29
 90
        3
 70
     0
 71
     0
  1
AcDbOsnapPointRef
 72
     2
331
A43
 73
     2
 91
        6
 40
1.570796326794896
 10
0.0
 20
0.0
 30
0.0
 75
     0
  1
AcDbOsnapPointRef
 72
     2
331
A43
 73
     2
 91
        2
 40
4.712388980384687
 10
0.0
 20
0.0
 30
0.0
 75
     0
  0
DIMASSOC
  5
A2E
102
{ACAD_REACTORS
330
A2D
102
}
330
A2D
100
AcDbDimAssoc
330
A2C
 90
        1
 70
     0
 71
     0
  1
AcDbOsnapPointRef
 72
     1
331
A40
 73
     2
 91
        0
 40
1.0
 10
0.0
 20
0.0
 30
2.000000000000000E+50
 75
     0
  0
LAYOUT
  5
24
102
{ACAD_XDICTIONARY
360
C4A
102
}
102
{ACAD_REACTORS
330
1A
102
}
330
1A
100
AcDbPlotSettings
  1

  2
FX DocuPrint 255-AP
  4

  6

 40
0.0
 41
0.0
 42
0.0
 43
0.0
 44
0.0
 45
0.0
 46
0.0
 47
0.0
 48
0.0
 49
0.0
140
0.0
141
0.0
142
1.0
143
1.0
 70
  1712
 72
     0
 73
     0
 74
     0
  7

 75
     0
147
1.0
148
0.0
149
0.0
100
AcDbLayout
  1
Model
 70
     1
 71
     0
 10
0.0
 20
0.0
 11
12.0
 21
9.0
 12
0.0
 22
0.0
 32
0.0
 14
0.0
 24
0.0
 34
0.0
 15
0.0
 25
0.0
 35
0.0
146
0.0
 13
0.0
 23
0.0
 33
0.0
 16
1.0
 26
0.0
 36
0.0
 17
0.0
 27
1.0
 37
0.0
 76
     0
330
21
331
BC6
  0
LAYOUT
  5
20
102
{ACAD_XDICTIONARY
360
C48
102
}
102
{ACAD_REACTORS
330
1A
102
}
330
1A
100
AcDbPlotSettings
  1

  2
FX DocuPrint 255-AP
  4

  6

 40
0.0
 41
0.0
 42
0.0
 43
0.0
 44
0.0
 45
0.0
 46
0.0
 47
0.0
 48
0.0
 49
0.0
140
0.0
141
0.0
142
1.0
143
1.0
 70
   688
 72
     0
 73
     0
 74
     5
  7

 75
    16
147
1.0
148
0.0
149
0.0
100
AcDbLayout
  1
布局1
 70
     1
 71
     1
 10
0.0
 20
0.0
 11
420.0
 21
297.0
 12
0.0
 22
0.0
 32
0.0
 14
1.000000000000000E+20
 24
1.000000000000000E+20
 34
1.000000000000000E+20
 15
-1.000000000000000E+20
 25
-1.000000000000000E+20
 35
-1.000000000000000E+20
146
0.0
 13
0.0
 23
0.0
 33
0.0
 16
1.0
 26
0.0
 36
0.0
 17
0.0
 27
1.0
 37
0.0
 76
     0
330
1D
  0
LAYOUT
  5
28
102
{ACAD_XDICTIONARY
360
C4C
102
}
102
{ACAD_REACTORS
330
1A
102
}
330
1A
100
AcDbPlotSettings
  1

  2
FX DocuPrint 255-AP
  4

  6

 40
0.0
 41
0.0
 42
0.0
 43
0.0
 44
0.0
 45
0.0
 46
0.0
 47
0.0
 48
0.0
 49
0.0
140
0.0
141
0.0
142
1.0
143
1.0
 70
   688
 72
     0
 73
     0
 74
     5
  7

 75
    16
147
1.0
148
0.0
149
0.0
100
AcDbLayout
  1
布局2
 70
     1
 71
     2
 10
0.0
 20
0.0
 11
12.0
 21
9.0
 12
0.0
 22
0.0
 32
0.0
 14
0.0
 24
0.0
 34
0.0
 15
0.0
 25
0.0
 35
0.0
146
0.0
 13
0.0
 23
0.0
 33
0.0
 16
1.0
 26
0.0
 36
0.0
 17
0.0
 27
1.0
 37
0.0
 76
     0
330
25
  0
MATERIAL
  5
BD1
102
{ACAD_XDICTIONARY
360
BD2
102
}
102
{ACAD_REACTORS
330
1B
102
}
330
1B
100
AcDbMaterial
  1
ByBlock
 72
     0
 43
0.0008202099737533
 43
0.0
 43
0.0
 43
0.0
 43
0.0
 43
0.0008202099737533
 43
0.0
 43
0.0
 43
0.0
 43
0.0
 43
1.0
 43
0.0
 43
0.0
 43
0.0
 43
0.0
 43
1.0
 77
     0
 47
0.0008202099737533
 47
0.0
 47
0.0
 47
0.0
 47
0.0
 47
0.0008202099737533
 47
0.0
 47
0.0
 47
0.0
 47
0.0
 47
1.0
 47
0.0
 47
0.0
 47
0.0
 47
0.0
 47
1.0
171
     0
 49
0.0008202099737533
 49
0.0
 49
0.0
 49
0.0
 49
0.0
 49
0.0008202099737533
 49
0.0
 49
0.0
 49
0.0
 49
0.0
 49
1.0
 49
0.0
 49
0.0
 49
0.0
 49
0.0
 49
1.0
175
     0
142
0.0008202099737533
142
0.0
142
0.0
142
0.0
142
0.0
142
0.0008202099737533
142
0.0
142
0.0
142
0.0
142
0.0
142
1.0
142
0.0
142
0.0
142
0.0
142
0.0
142
1.0
179
     0
144
0.0008202099737533
144
0.0
144
0.0
144
0.0
144
0.0
144
0.0008202099737533
144
0.0
144
0.0
144
0.0
144
0.0
144
1.0
144
0.0
144
0.0
144
0.0
144
0.0
144
1.0
147
0.0008202099737533
147
0.0
147
0.0
147
0.0
147
0.0
147
0.0008202099737533
147
0.0
147
0.0
147
0.0
147
0.0
147
1.0
147
0.0
147
0.0
147
0.0
147
0.0
147
1.0
  0
MATERIAL
  5
BC9
102
{ACAD_XDICTIONARY
360
BCA
102
}
102
{ACAD_REACTORS
330
1B
102
}
330
1B
100
AcDbMaterial
  1
ByLayer
 72
     0
 43
0.0008202099737533
 43
0.0
 43
0.0
 43
0.0
 43
0.0
 43
0.0008202099737533
 43
0.0
 43
0.0
 43
0.0
 43
0.0
 43
1.0
 43
0.0
 43
0.0
 43
0.0
 43
0.0
 43
1.0
 77
     0
 47
0.0008202099737533
 47
0.0
 47
0.0
 47
0.0
 47
0.0
 47
0.0008202099737533
 47
0.0
 47
0.0
 47
0.0
 47
0.0
 47
1.0
 47
0.0
 47
0.0
 47
0.0
 47
0.0
 47
1.0
171
     0
 49
0.0008202099737533
 49
0.0
 49
0.0
 49
0.0
 49
0.0
 49
0.0008202099737533
 49
0.0
 49
0.0
 49
0.0
 49
0.0
 49
1.0
 49
0.0
 49
0.0
 49
0.0
 49
0.0
 49
1.0
175
     0
142
0.0008202099737533
142
0.0
142
0.0
142
0.0
142
0.0
142
0.0008202099737533
142
0.0
142
0.0
142
0.0
142
0.0
142
1.0
142
0.0
142
0.0
142
0.0
142
0.0
142
1.0
179
     0
144
0.0008202099737533
144
0.0
144
0.0
144
0.0
144
0.0
144
0.0008202099737533
144
0.0
144
0.0
144
0.0
144
0.0
144
1.0
144
0.0
144
0.0
144
0.0
144
0.0
144
1.0
147
0.0008202099737533
147
0.0
147
0.0
147
0.0
147
0.0
147
0.0008202099737533
147
0.0
147
0.0
147
0.0
147
0.0
147
1.0
147
0.0
147
0.0
147
0.0
147
0.0
147
1.0
  0
MATERIAL
  5
BD9
102
{ACAD_XDICTIONARY
360
BDA
102
}
102
{ACAD_REACTORS
330
1B
102
}
330
1B
100
AcDbMaterial
  1
Global
 72
     0
 43
0.0008202099737533
 43
0.0
 43
0.0
 43
0.0
 43
0.0
 43
0.0008202099737533
 43
0.0
 43
0.0
 43
0.0
 43
0.0
 43
1.0
 43
0.0
 43
0.0
 43
0.0
 43
0.0
 43
1.0
 77
     0
 47
0.0008202099737533
 47
0.0
 47
0.0
 47
0.0
 47
0.0
 47
0.0008202099737533
 47
0.0
 47
0.0
 47
0.0
 47
0.0
 47
1.0
 47
0.0
 47
0.0
 47
0.0
 47
0.0
 47
1.0
171
     0
 49
0.0008202099737533
 49
0.0
 49
0.0
 49
0.0
 49
0.0
 49
0.0008202099737533
 49
0.0
 49
0.0
 49
0.0
 49
0.0
 49
1.0
 49
0.0
 49
0.0
 49
0.0
 49
0.0
 49
1.0
175
     0
142
0.0008202099737533
142
0.0
142
0.0
142
0.0
142
0.0
142
0.0008202099737533
142
0.0
142
0.0
142
0.0
142
0.0
142
1.0
142
0.0
142
0.0
142
0.0
142
0.0
142
1.0
179
     0
144
0.0008202099737533
144
0.0
144
0.0
144
0.0
144
0.0
144
0.0008202099737533
144
0.0
144
0.0
144
0.0
144
0.0
144
1.0
144
0.0
144
0.0
144
0.0
144
0.0
144
1.0
147
0.0008202099737533
147
0.0
147
0.0
147
0.0
147
0.0
147
0.0008202099737533
147
0.0
147
0.0
147
0.0
147
0.0
147
1.0
147
0.0
147
0.0
147
0.0
147
0.0
147
1.0
  0
MLEADERSTYLE
  5
C17
102
{ACAD_REACTORS
330
C16
102
}
330
C16
100
AcDbMLeaderStyle
170
     2
171
     1
172
     0
 90
        2
 40
0.0
 41
0.0
173
     1
 91
-1056964608
340
14
 92
       -2
290
     1
 42
2.0
291
     1
 43
0.36
  3
Standard
 44
4.0
300

342
11
174
     1
178
     6
175
     1
176
     0
 93
-1056964608
 45
4.0
292
     0
297
     0
 46
4.0
 94
-1056964608
 47
1.0
 49
1.0
140
1.0
293
     1
141
0.0
294
     1
177
     0
142
1.0
295
     0
296
     0
143
0.125
1001
ACAD_MLEADERVER
1070
     2
  0
MLINESTYLE
  5
18
102
{ACAD_REACTORS
330
17
102
}
330
17
100
AcDbMlineStyle
  2
STANDARD
 70
     0
  3

 62
   256
 51
90.0
 52
90.0
 71
     2
 49
0.5
 62
   256
  6
BYLAYER
 49
-0.5
 62
   256
  6
BYLAYER
  0
ACDBPLACEHOLDER
  5
F
102
{ACAD_REACTORS
330
E
102
}
330
E
  0
SCALE
  5
BF5
102
{ACAD_REACTORS
330
BF4
102
}
330
BF4
100
AcDbScale
 70
     0
300
1:1
140
1.0
141
1.0
290
     1
  0
SCALE
  5
BF6
102
{ACAD_REACTORS
330
BF4
102
}
330
BF4
100
AcDbScale
 70
     0
300
1:2
140
1.0
141
2.0
290
     0
  0
SCALE
  5
BF7
102
{ACAD_REACTORS
330
BF4
102
}
330
BF4
100
AcDbScale
 70
     0
300
1:4
140
1.0
141
4.0
290
     0
  0
SCALE
  5
BF8
102
{ACAD_REACTORS
330
BF4
102
}
330
BF4
100
AcDbScale
 70
     0
300
1:5
140
1.0
141
5.0
290
     0
  0
SCALE
  5
BF9
102
{ACAD_REACTORS
330
BF4
102
}
330
BF4
100
AcDbScale
 70
     0
300
1:8
140
1.0
141
8.0
290
     0
  0
SCALE
  5
BFA
102
{ACAD_REACTORS
330
BF4
102
}
330
BF4
100
AcDbScale
 70
     0
300
1:10
140
1.0
141
10.0
290
     0
  0
SCALE
  5
BFB
102
{ACAD_REACTORS
330
BF4
102
}
330
BF4
100
AcDbScale
 70
     0
300
1:16
140
1.0
141
16.0
290
     0
  0
SCALE
  5
BFC
102
{ACAD_REACTORS
330
BF4
102
}
330
BF4
100
AcDbScale
 70
     0
300
1:20
140
1.0
141
20.0
290
     0
  0
SCALE
  5
BFD
102
{ACAD_REACTORS
330
BF4
102
}
330
BF4
100
AcDbScale
 70
     0
300
1:30
140
1.0
141
30.0
290
     0
  0
SCALE
  5
BFE
102
{ACAD_REACTORS
330
BF4
102
}
330
BF4
100
AcDbScale
 70
     0
300
1:40
140
1.0
141
40.0
290
     0
  0
SCALE
  5
BFF
102
{ACAD_REACTORS
330
BF4
102
}
330
BF4
100
AcDbScale
 70
     0
300
1:50
140
1.0
141
50.0
290
     0
  0
SCALE
  5
C00
102
{ACAD_REACTORS
330
BF4
102
}
330
BF4
100
AcDbScale
 70
     0
300
1:100
140
1.0
141
100.0
290
     0
  0
SCALE
  5
C01
102
{ACAD_REACTORS
330
BF4
102
}
330
BF4
100
AcDbScale
 70
     0
300
2:1
140
2.0
141
1.0
290
     0
  0
SCALE
  5
C02
102
{ACAD_REACTORS
330
BF4
102
}
330
BF4
100
AcDbScale
 70
     0
300
4:1
140
4.0
141
1.0
290
     0
  0
SCALE
  5
C03
102
{ACAD_REACTORS
330
BF4
102
}
330
BF4
100
AcDbScale
 70
     0
300
8:1
140
8.0
141
1.0
290
     0
  0
SCALE
  5
C04
102
{ACAD_REACTORS
330
BF4
102
}
330
BF4
100
AcDbScale
 70
     0
300
10:1
140
10.0
141
1.0
290
     0
  0
SCALE
  5
C05
102
{ACAD_REACTORS
330
BF4
102
}
330
BF4
100
AcDbScale
 70
     0
300
100:1
140
100.0
141
1.0
290
     0
  0
SCALE
  5
C06
102
{ACAD_REACTORS
330
BF4
102
}
330
BF4
100
AcDbScale
 70
     0
300
1/128" = 1'-0"
140
0.0078125
141
12.0
290
     0
  0
SCALE
  5
C07
102
{ACAD_REACTORS
330
BF4
102
}
330
BF4
100
AcDbScale
 70
     0
300
1/64" = 1'-0"
140
0.015625
141
12.0
290
     0
  0
SCALE
  5
C08
102
{ACAD_REACTORS
330
BF4
102
}
330
BF4
100
AcDbScale
 70
     0
300
1/32" = 1'-0"
140
0.03125
141
12.0
290
     0
  0
SCALE
  5
C09
102
{ACAD_REACTORS
330
BF4
102
}
330
BF4
100
AcDbScale
 70
     0
300
1/16" = 1'-0"
140
0.0625
141
12.0
290
     0
  0
SCALE
  5
C0A
102
{ACAD_REACTORS
330
BF4
102
}
330
BF4
100
AcDbScale
 70
     0
300
3/32" = 1'-0"
140
0.09375
141
12.0
290
     0
  0
SCALE
  5
C0B
102
{ACAD_REACTORS
330
BF4
102
}
330
BF4
100
AcDbScale
 70
     0
300
1/8" = 1'-0"
140
0.125
141
12.0
290
     0
  0
SCALE
  5
C0C
102
{ACAD_REACTORS
330
BF4
102
}
330
BF4
100
AcDbScale
 70
     0
300
3/16" = 1'-0"
140
0.1875
141
12.0
290
     0
  0
SCALE
  5
C0D
102
{ACAD_REACTORS
330
BF4
102
}
330
BF4
100
AcDbScale
 70
     0
300
1/4" = 1'-0"
140
0.25
141
12.0
290
     0
  0
SCALE
  5
C0E
102
{ACAD_REACTORS
330
BF4
102
}
330
BF4
100
AcDbScale
 70
     0
300
3/8" = 1'-0"
140
0.375
141
12.0
290
     0
  0
SCALE
  5
C0F
102
{ACAD_REACTORS
330
BF4
102
}
330
BF4
100
AcDbScale
 70
     0
300
1/2" = 1'-0"
140
0.5
141
12.0
290
     0
  0
SCALE
  5
C10
102
{ACAD_REACTORS
330
BF4
102
}
330
BF4
100
AcDbScale
 70
     0
300
3/4" = 1'-0"
140
0.75
141
12.0
290
     0
  0
SCALE
  5
C11
102
{ACAD_REACTORS
330
BF4
102
}
330
BF4
100
AcDbScale
 70
     0
300
1" = 1'-0"
140
1.0
141
12.0
290
     0
  0
SCALE
  5
C12
102
{ACAD_REACTORS
330
BF4
102
}
330
BF4
100
AcDbScale
 70
     0
300
1-1/2" = 1'-0"
140
1.5
141
12.0
290
     0
  0
SCALE
  5
C13
102
{ACAD_REACTORS
330
BF4
102
}
330
BF4
100
AcDbScale
 70
     0
300
3" = 1'-0"
140
3.0
141
12.0
290
     0
  0
SCALE
  5
C14
102
{ACAD_REACTORS
330
BF4
102
}
330
BF4
100
AcDbScale
 70
     0
300
6" = 1'-0"
140
6.0
141
12.0
290
     0
  0
SCALE
  5
C15
102
{ACAD_REACTORS
330
BF4
102
}
330
BF4
100
AcDbScale
 70
     0
300
1'-0" = 1'-0"
140
12.0
141
12.0
290
     0
  0
TABLESTYLE
  5
BF3
102
{ACAD_XDICTIONARY
360
C44
102
}
102
{ACAD_REACTORS
330
BF2
102
}
330
BF2
100
AcDbTableStyle
  3
Standard
 70
     0
 71
     0
 40
1.5
 41
1.5
280
     0
281
     0
  7
Standard
140
4.5
170
     2
 62
     0
 63
     7
283
     0
274
    -2
284
     1
 64
     0
275
    -2
285
     1
 65
     0
276
    -2
286
     1
 66
     0
277
    -2
287
     1
 67
     0
278
    -2
288
     1
 68
     0
279
    -2
289
     1
 69
     0
  7
Standard
140
6.0
170
     5
 62
     0
 63
     7
283
     0
274
    -2
284
     1
 64
     0
275
    -2
285
     1
 65
     0
276
    -2
286
     1
 66
     0
277
    -2
287
     1
 67
     0
278
    -2
288
     1
 68
     0
279
    -2
289
     1
 69
     0
  7
Standard
140
4.5
170
     5
 62
     0
 63
     7
283
     0
274
    -2
284
     1
 64
     0
275
    -2
285
     1
 65
     0
276
    -2
286
     1
 66
     0
277
    -2
287
     1
 67
     0
278
    -2
288
     1
 68
     0
279
    -2
289
     1
 69
     0
  0
VISUALSTYLE
  5
BE7
102
{ACAD_REACTORS
330
BE1
102
}
330
BE1
100
AcDbVisualStyle
  2
2dWireframe
 70
     4
 71
     0
 72
     2
 73
     0
 90
        0
 40
-0.6
 41
-30.0
 62
     5
 63
     7
 74
     1
 91
        4
 64
     7
 65
   257
 75
     1
175
     1
 42
1.0
 92
        0
 66
   257
 43
1.0
 76
     1
 77
     6
 78
     2
 67
     7
 79
     5
170
     0
171
     0
290
     0
174
     0
 93
        1
 44
0.0
173
     0
291
     0
 45
0.0
1001
ACAD
1000
AcDbSavedByObjectVersion
1070
     0
  0
VISUALSTYLE
  5
BE9
102
{ACAD_REACTORS
330
BE1
102
}
330
BE1
100
AcDbVisualStyle
  2
3D Hidden
 70
     6
 71
     1
 72
     2
 73
     2
 90
        0
 40
-0.6
 41
-30.0
 62
     5
 63
     7
 74
     2
 91
        2
 64
     7
 65
   257
 75
     2
175
     1
 42
40.0
 92
        0
 66
   257
 43
1.0
 76
     1
 77
     6
 78
     2
 67
     7
 79
     3
170
     0
171
     0
290
     0
174
     0
 93
        1
 44
0.0
173
     0
291
     0
 45
0.0
1001
ACAD
1000
AcDbSavedByObjectVersion
1070
     0
  0
VISUALSTYLE
  5
BE8
102
{ACAD_REACTORS
330
BE1
102
}
330
BE1
100
AcDbVisualStyle
  2
3dWireframe
 70
     5
 71
     0
 72
     2
 73
     0
 90
        0
 40
-0.6
 41
-30.0
 62
     5
 63
     7
 74
     1
 91
        4
 64
     7
 65
   257
 75
     1
175
     1
 42
1.0
 92
        0
 66
   257
 43
1.0
 76
     1
 77
     6
 78
     2
 67
     7
 79
     5
170
     0
171
     0
290
     0
174
     0
 93
        1
 44
0.0
173
     0
291
     0
 45
0.0
1001
ACAD
1000
AcDbSavedByObjectVersion
1070
     0
  0
VISUALSTYLE
  5
BE6
102
{ACAD_REACTORS
330
BE1
102
}
330
BE1
100
AcDbVisualStyle
  2
Basic
 70
     7
 71
     1
 72
     0
 73
     1
 90
        0
 40
-0.6
 41
-30.0
 62
     5
 63
     7
 74
     0
 91
        4
 64
     7
 65
   257
 75
     1
175
     1
 42
1.0
 92
        8
 66
     7
 43
1.0
 76
     1
 77
     6
 78
     2
 67
     7
 79
     5
170
     0
171
     0
290
     0
174
     0
 93
        1
 44
0.0
173
     0
291
     1
 45
0.0
1001
ACAD
1000
AcDbSavedByObjectVersion
1070
     0
  0
VISUALSTYLE
  5
BED
102
{ACAD_REACTORS
330
BE1
102
}
330
BE1
100
AcDbVisualStyle
  2
Brighten
 70
    12
 71
     2
 72
     2
 73
     0
 90
        0
 40
-0.6
 41
-30.0
 62
     5
 63
     7
 74
     1
 91
        4
 64
     7
 65
   257
 75
     1
175
     1
 42
1.0
 92
        8
 66
     7
 43
1.0
 76
     1
 77
     6
 78
     2
 67
     7
 79
     5
170
     0
171
     0
290
     0
174
     0
 93
        1
 44
50.0
173
     0
291
     1
 45
0.0
1001
ACAD
1000
AcDbSavedByObjectVersion
1070
     0
  0
VISUALSTYLE
  5
BF1
102
{ACAD_REACTORS
330
BE1
102
}
330
BE1
100
AcDbVisualStyle
  2
ColorChange
 70
    16
 71
     2
 72
     2
 73
     3
 90
        0
 40
-0.6
 41
-30.0
 62
     5
 63
     8
 74
     1
 91
        4
 64
     7
 65
   257
 75
     1
175
     1
 42
1.0
 92
        8
 66
     8
 43
1.0
 76
     1
 77
     6
 78
     2
 67
     7
 79
     5
170
     0
171
     0
290
     0
174
     0
 93
        1
 44
0.0
173
     0
291
     1
 45
0.0
1001
ACAD
1000
AcDbSavedByObjectVersion
1070
     0
  0
VISUALSTYLE
  5
BEA
102
{ACAD_REACTORS
330
BE1
102
}
330
BE1
100
AcDbVisualStyle
  2
Conceptual
 70
     9
 71
     3
 72
     2
 73
     0
 90
        0
 40
-0.6
 41
-30.0
 62
     5
 63
     7
 74
     2
 91
        2
 64
     7
 65
   257
 75
     1
175
     1
 42
40.0
 92
        8
 66
     7
 43
1.0
 76
     1
 77
     6
 78
     2
 67
     7
 79
     3
170
     0
171
     0
290
     0
174
     0
 93
        1
 44
0.0
173
     0
291
     0
 45
0.0
1001
ACAD
1000
AcDbSavedByObjectVersion
1070
     0
  0
VISUALSTYLE
  5
BEC
102
{ACAD_REACTORS
330
BE1
102
}
330
BE1
100
AcDbVisualStyle
  2
Dim
 70
    11
 71
     2
 72
     2
 73
     0
 90
        0
 40
-0.6
 41
-30.0
 62
     5
 63
     7
 74
     1
 91
        4
 64
     7
 65
   257
 75
     1
175
     1
 42
1.0
 92
        8
 66
     7
 43
1.0
 76
     1
 77
     6
 78
     2
 67
     7
 79
     5
170
     0
171
     0
290
     0
174
     0
 93
        1
 44
-50.0
173
     0
291
     1
 45
0.0
1001
ACAD
1000
AcDbSavedByObjectVersion
1070
     0
  0
VISUALSTYLE
  5
BF0
102
{ACAD_REACTORS
330
BE1
102
}
330
BE1
100
AcDbVisualStyle
  2
Facepattern
 70
    15
 71
     2
 72
     2
 73
     0
 90
        0
 40
-0.6
 41
-30.0
 62
     5
 63
     7
 74
     1
 91
        4
 64
     7
 65
   257
 75
     1
175
     1
 42
1.0
 92
        8
 66
     7
 43
1.0
 76
     1
 77
     6
 78
     2
 67
     7
 79
     5
170
     0
171
     0
290
     0
174
     0
 93
        1
 44
0.0
173
     0
291
     1
 45
0.0
1001
ACAD
1000
AcDbSavedByObjectVersion
1070
     0
  0
VISUALSTYLE
  5
BE2
102
{ACAD_REACTORS
330
BE1
102
}
330
BE1
100
AcDbVisualStyle
  2
Flat
 70
     0
 71
     2
 72
     1
 73
     1
 90
        2
 40
-0.6
 41
30.0
 62
     5
 63
     7
 74
     0
 91
        4
 64
     7
 65
   257
 75
     1
175
     1
 42
1.0
 92
        8
 66
     7
 43
1.0
 76
     1
 77
     6
 78
     2
 67
     7
 79
     5
170
     0
171
     0
290
     0
174
     0
 93
       13
 44
0.0
173
     0
291
     1
 45
0.0
1001
ACAD
1000
AcDbSavedByObjectVersion
1070
     0
  0
VISUALSTYLE
  5
BE3
102
{ACAD_REACTORS
330
BE1
102
}
330
BE1
100
AcDbVisualStyle
  2
FlatWithEdges
 70
     1
 71
     2
 72
     1
 73
     1
 90
        2
 40
-0.6
 41
30.0
 62
     5
 63
     7
 74
     1
 91
        4
 64
     7
 65
   257
 75
     1
175
     1
 42
1.0
 92
        0
 66
   257
 43
1.0
 76
     1
 77
     6
 78
     2
 67
     7
 79
     5
170
     0
171
     0
290
     0
174
     0
 93
       13
 44
0.0
173
     0
291
     1
 45
0.0
1001
ACAD
1000
AcDbSavedByObjectVersion
1070
     0
  0
VISUALSTYLE
  5
BE4
102
{ACAD_REACTORS
330
BE1
102
}
330
BE1
100
AcDbVisualStyle
  2
Gouraud
 70
     2
 71
     2
 72
     2
 73
     1
 90
        2
 40
-0.6
 41
30.0
 62
     5
 63
     7
 74
     0
 91
        4
 64
     7
 65
   257
 75
     1
175
     1
 42
1.0
 92
        0
 66
     7
 43
1.0
 76
     1
 77
     6
 78
     2
 67
     7
 79
     5
170
     0
171
     0
290
     0
174
     0
 93
       13
 44
0.0
173
     0
291
     1
 45
0.0
1001
ACAD
1000
AcDbSavedByObjectVersion
1070
     0
  0
VISUALSTYLE
  5
BE5
102
{ACAD_REACTORS
330
BE1
102
}
330
BE1
100
AcDbVisualStyle
  2
GouraudWithEdges
 70
     3
 71
     2
 72
     2
 73
     1
 90
        2
 40
-0.6
 41
30.0
 62
     5
 63
     7
 74
     1
 91
        4
 64
     7
 65
   257
 75
     1
175
     1
 42
1.0
 92
        0
 66
   257
 43
1.0
 76
     1
 77
     6
 78
     2
 67
     7
 79
     5
170
     0
171
     0
290
     0
174
     0
 93
       13
 44
0.0
173
     0
291
     1
 45
0.0
1001
ACAD
1000
AcDbSavedByObjectVersion
1070
     0
  0
VISUALSTYLE
  5
BEF
102
{ACAD_REACTORS
330
BE1
102
}
330
BE1
100
AcDbVisualStyle
  2
Linepattern
 70
    14
 71
     2
 72
     2
 73
     0
 90
        0
 40
-0.6
 41
-30.0
 62
     5
 63
     7
 74
     1
 91
        4
 64
     7
 65
   257
 75
     7
175
     7
 42
1.0
 92
        8
 66
     7
 43
1.0
 76
     1
 77
     6
 78
     2
 67
     7
 79
     5
170
     0
171
     0
290
     0
174
     0
 93
        1
 44
0.0
173
     0
291
     1
 45
0.0
1001
ACAD
1000
AcDbSavedByObjectVersion
1070
     0
  0
VISUALSTYLE
  5
BEB
102
{ACAD_REACTORS
330
BE1
102
}
330
BE1
100
AcDbVisualStyle
  2
Realistic
 70
     8
 71
     2
 72
     2
 73
     0
 90
        0
 40
-0.6
 41
-30.0
 62
     5
 63
     7
 74
     1
 91
        0
 64
     7
 65
   257
 75
     1
175
     1
 42
1.0
 92
        8
 66
     8
 43
1.0
 76
     1
 77
     6
 78
     2
 67
     7
 79
     5
170
     0
171
     0
290
     0
174
     0
 93
       13
 44
0.0
173
     0
291
     0
 45
0.0
1001
ACAD
1000
AcDbSavedByObjectVersion
1070
     0
  0
VISUALSTYLE
  5
BEE
102
{ACAD_REACTORS
330
BE1
102
}
330
BE1
100
AcDbVisualStyle
  2
Thicken
 70
    13
 71
     2
 72
     2
 73
     0
 90
        0
 40
-0.6
 41
-30.0
 62
     5
 63
     7
 74
     1
 91
        4
 64
     7
 65
   257
 75
     1
175
     1
 42
1.0
 92
       12
 66
     7
 43
1.0
 76
     1
 77
     6
 78
     2
 67
     7
 79
     5
170
     0
171
     0
290
     0
174
     0
 93
        1
 44
0.0
173
     0
291
     1
 45
0.0
1001
ACAD
1000
AcDbSavedByObjectVersion
1070
     0
  0
DICTIONARYVAR
  5
C3F
102
{ACAD_REACTORS
330
C3C
102
}
330
C3C
100
DictionaryVariables
280
     0
  1
1:1
  0
DICTIONARYVAR
  5
C3E
102
{ACAD_REACTORS
330
C3C
102
}
330
C3C
100
DictionaryVariables
280
     0
  1
STANDARD
  0
DICTIONARYVAR
  5
C3D
102
{ACAD_REACTORS
330
C3C
102
}
330
C3C
100
DictionaryVariables
280
     0
  1
STANDARD
  0
DICTIONARYVAR
  5
C43
102
{ACAD_REACTORS
330
C3C
102
}
330
C3C
100
DictionaryVariables
280
     0
  1
2
  0
DICTIONARYVAR
  5
C42
102
{ACAD_REACTORS
330
C3C
102
}
330
C3C
100
DictionaryVariables
280
     0
  1
1
  0
DICTIONARYVAR
  5
C41
102
{ACAD_REACTORS
330
C3C
102
}
330
C3C
100
DictionaryVariables
280
     0
  1
0
  0
DICTIONARYVAR
  5
C40
102
{ACAD_REACTORS
330
C3C
102
}
330
C3C
100
DictionaryVariables
280
     0
  1
127
  0
VLO-VL
  5
C1D
102
{ACAD_REACTORS
330
C1C
102
}
330
C1C
100
vlo_VL
 90
   -64512
 91
       12
 92
        1
 40
2.5
300
(&VLO-R . 0)
  0
DICTIONARY
  5
C4A
330
24
100
AcDbDictionary
280
     1
281
     1
  3
ACAD_XREC_ROUNDTRIP
360
C4B
  0
DICTIONARY
  5
C48
330
20
100
AcDbDictionary
280
     1
281
     1
  3
ACAD_XREC_ROUNDTRIP
360
C49
  0
DICTIONARY
  5
C4C
330
28
100
AcDbDictionary
280
     1
281
     1
  3
ACAD_XREC_ROUNDTRIP
360
C4D
  0
DICTIONARY
  5
BD2
330
BD1
100
AcDbDictionary
280
     1
281
     1
  3
ACAD_XREC_ROUNDTRIP
360
C4F
  3
BUMPTILE
360
BD4
  3
DIFFUSETILE
360
BD3
  3
OPACITYTILE
360
BD7
  3
REFLECTIONTILE
360
BD6
  3
REFRACTIONTILE
360
BD8
  3
SPECULARTILE
360
BD5
  0
DICTIONARY
  5
BCA
330
BC9
100
AcDbDictionary
280
     1
281
     1
  3
ACAD_XREC_ROUNDTRIP
360
C4E
  3
BUMPTILE
360
BCC
  3
DIFFUSETILE
360
BCB
  3
OPACITYTILE
360
BCF
  3
REFLECTIONTILE
360
BCE
  3
REFRACTIONTILE
360
BD0
  3
SPECULARTILE
360
BCD
  0
DICTIONARY
  5
BDA
330
BD9
100
AcDbDictionary
280
     1
281
     1
  3
ACAD_XREC_ROUNDTRIP
360
C50
  3
BUMPTILE
360
BDC
  3
DIFFUSETILE
360
BDB
  3
OPACITYTILE
360
BDF
  3
REFLECTIONTILE
360
BDE
  3
REFRACTIONTILE
360
BE0
  3
SPECULARTILE
360
BDD
  0
DICTIONARY
  5
C44
330
BF3
100
AcDbDictionary
280
     1
281
     1
  3
ACAD_ROUNDTRIP_2008_TABLESTYLE_CELLSTYLEMAP
360
C45
  3
ACAD_XREC_ROUNDTRIP
360
C51
  0
XRECORD
  5
C4B
102
{ACAD_REACTORS
330
C4A
102
}
330
C4A
100
AcDbXrecord
280
     1
102
SHADEPLOT
 70
     0
102
SHADEPLOTRESLEVEL
 70
     2
102
SHADEPLOTCUSTOMDPI
 70
   300
  0
XRECORD
  5
C49
102
{ACAD_REACTORS
330
C48
102
}
330
C48
100
AcDbXrecord
280
     1
102
SHADEPLOT
 70
     0
102
SHADEPLOTRESLEVEL
 70
     2
102
SHADEPLOTCUSTOMDPI
 70
   300
  0
XRECORD
  5
C4D
102
{ACAD_REACTORS
330
C4C
102
}
330
C4C
100
AcDbXrecord
280
     1
102
SHADEPLOT
 70
     0
102
SHADEPLOTRESLEVEL
 70
     2
102
SHADEPLOTCUSTOMDPI
 70
   300
  0
XRECORD
  5
C4F
102
{ACAD_REACTORS
330
BD2
102
}
330
BD2
100
AcDbXrecord
280
     1
102
MATERIAL
148
0.0
149
0.0
149
0.0
 93
        0
 94
      127
282
     0
 72
     0
 77
     0
171
     0
175
     0
179
     0
273
     0
  0
XRECORD
  5
BD4
102
{ACAD_REACTORS
330
BD2
102
}
330
BD2
100
AcDbXrecord
280
     1
270
     1
271
     1
  0
XRECORD
  5
BD3
102
{ACAD_REACTORS
330
BD2
102
}
330
BD2
100
AcDbXrecord
280
     1
270
     1
271
     1
  0
XRECORD
  5
BD7
102
{ACAD_REACTORS
330
BD2
102
}
330
BD2
100
AcDbXrecord
280
     1
270
     1
271
     1
  0
XRECORD
  5
BD6
102
{ACAD_REACTORS
330
BD2
102
}
330
BD2
100
AcDbXrecord
280
     1
270
     1
271
     1
  0
XRECORD
  5
BD8
102
{ACAD_REACTORS
330
BD2
102
}
330
BD2
100
AcDbXrecord
280
     1
270
     1
271
     1
  0
XRECORD
  5
BD5
102
{ACAD_REACTORS
330
BD2
102
}
330
BD2
100
AcDbXrecord
280
     1
270
     1
271
     1
  0
XRECORD
  5
C4E
102
{ACAD_REACTORS
330
BCA
102
}
330
BCA
100
AcDbXrecord
280
     1
102
MATERIAL
148
0.0
149
0.0
149
0.0
 93
        0
 94
      127
282
     0
 72
     0
 77
     0
171
     0
175
     0
179
     0
273
     0
  0
XRECORD
  5
BCC
102
{ACAD_REACTORS
330
BCA
102
}
330
BCA
100
AcDbXrecord
280
     1
270
     1
271
     1
  0
XRECORD
  5
BCB
102
{ACAD_REACTORS
330
BCA
102
}
330
BCA
100
AcDbXrecord
280
     1
270
     1
271
     1
  0
XRECORD
  5
BCF
102
{ACAD_REACTORS
330
BCA
102
}
330
BCA
100
AcDbXrecord
280
     1
270
     1
271
     1
  0
XRECORD
  5
BCE
102
{ACAD_REACTORS
330
BCA
102
}
330
BCA
100
AcDbXrecord
280
     1
270
     1
271
     1
  0
XRECORD
  5
BD0
102
{ACAD_REACTORS
330
BCA
102
}
330
BCA
100
AcDbXrecord
280
     1
270
     1
271
     1
  0
XRECORD
  5
BCD
102
{ACAD_REACTORS
330
BCA
102
}
330
BCA
100
AcDbXrecord
280
     1
270
     1
271
     1
  0
XRECORD
  5
C50
102
{ACAD_REACTORS
330
BDA
102
}
330
BDA
100
AcDbXrecord
280
     1
102
MATERIAL
148
0.0
149
0.0
149
0.0
 93
        0
 94
      127
282
     0
 72
     0
 77
     0
171
     0
175
     0
179
     0
273
     0
  0
XRECORD
  5
BDC
102
{ACAD_REACTORS
330
BDA
102
}
330
BDA
100
AcDbXrecord
280
     1
270
     1
271
     1
  0
XRECORD
  5
BDB
102
{ACAD_REACTORS
330
BDA
102
}
330
BDA
100
AcDbXrecord
280
     1
270
     1
271
     1
  0
XRECORD
  5
BDF
102
{ACAD_REACTORS
330
BDA
102
}
330
BDA
100
AcDbXrecord
280
     1
270
     1
271
     1
  0
XRECORD
  5
BDE
102
{ACAD_REACTORS
330
BDA
102
}
330
BDA
100
AcDbXrecord
280
     1
270
     1
271
     1
  0
XRECORD
  5
BE0
102
{ACAD_REACTORS
330
BDA
102
}
330
BDA
100
AcDbXrecord
280
     1
270
     1
271
     1
  0
XRECORD
  5
BDD
102
{ACAD_REACTORS
330
BDA
102
}
330
BDA
100
AcDbXrecord
280
     1
270
     1
271
     1
  0
CELLSTYLEMAP
  5
C45
102
{ACAD_REACTORS
330
C44
102
}
330
C44
100
AcDbCellStyleMap
 90
        3
300
CELLSTYLE
  1
TABLEFORMAT_BEGIN
 90
        5
170
     1
 91
        0
 92
    32768
 62
   257
 93
        1
300
CONTENTFORMAT
  1
CONTENTFORMAT_BEGIN
 90
        0
 91
        0
 92
      512
 93
        0
300

 40
0.0
140
1.0
 94
        5
 62
     0
340
11
144
6.0
309
CONTENTFORMAT_END
171
     1
301
MARGIN
  1
CELLMARGIN_BEGIN
 40
1.5
 40
1.5
 40
1.5
 40
1.5
 40
4.5
 40
4.5
309
CELLMARGIN_END
 94
        6
 95
        1
302
GRIDFORMAT
  1
GRIDFORMAT_BEGIN
 90
        0
 91
        1
 62
     0
 92
       -2
340
0
 93
        0
 40
1.125
309
GRIDFORMAT_END
 95
        2
302
GRIDFORMAT
  1
GRIDFORMAT_BEGIN
 90
        0
 91
        1
 62
     0
 92
       -2
340
0
 93
        0
 40
1.125
309
GRIDFORMAT_END
 95
        4
302
GRIDFORMAT
  1
GRIDFORMAT_BEGIN
 90
        0
 91
        1
 62
     0
 92
       -2
340
0
 93
        0
 40
1.125
309
GRIDFORMAT_END
 95
        8
302
GRIDFORMAT
  1
GRIDFORMAT_BEGIN
 90
        0
 91
        1
 62
     0
 92
       -2
340
0
 93
        0
 40
1.125
309
GRIDFORMAT_END
 95
       16
302
GRIDFORMAT
  1
GRIDFORMAT_BEGIN
 90
        0
 91
        1
 62
     0
 92
       -2
340
0
 93
        0
 40
1.125
309
GRIDFORMAT_END
 95
       32
302
GRIDFORMAT
  1
GRIDFORMAT_BEGIN
 90
        0
 91
        1
 62
     0
 92
       -2
340
0
 93
        0
 40
1.125
309
GRIDFORMAT_END
309
TABLEFORMAT_END
  1
CELLSTYLE_BEGIN
 90
        1
 91
        1
300
_TITLE
309
CELLSTYLE_END
300
CELLSTYLE
  1
TABLEFORMAT_BEGIN
 90
        5
170
     1
 91
        0
 92
        0
 62
   257
 93
        1
300
CONTENTFORMAT
  1
CONTENTFORMAT_BEGIN
 90
        0
 91
        0
 92
      512
 93
        0
300

 40
0.0
140
1.0
 94
        5
 62
     0
340
11
144
4.5
309
CONTENTFORMAT_END
171
     1
301
MARGIN
  1
CELLMARGIN_BEGIN
 40
1.5
 40
1.5
 40
1.5
 40
1.5
 40
4.5
 40
4.5
309
CELLMARGIN_END
 94
        6
 95
        1
302
GRIDFORMAT
  1
GRIDFORMAT_BEGIN
 90
        0
 91
        1
 62
     0
 92
       -2
340
0
 93
        0
 40
1.125
309
GRIDFORMAT_END
 95
        2
302
GRIDFORMAT
  1
GRIDFORMAT_BEGIN
 90
        0
 91
        1
 62
     0
 92
       -2
340
0
 93
        0
 40
1.125
309
GRIDFORMAT_END
 95
        4
302
GRIDFORMAT
  1
GRIDFORMAT_BEGIN
 90
        0
 91
        1
 62
     0
 92
       -2
340
0
 93
        0
 40
1.125
309
GRIDFORMAT_END
 95
        8
302
GRIDFORMAT
  1
GRIDFORMAT_BEGIN
 90
        0
 91
        1
 62
     0
 92
       -2
340
0
 93
        0
 40
1.125
309
GRIDFORMAT_END
 95
       16
302
GRIDFORMAT
  1
GRIDFORMAT_BEGIN
 90
        0
 91
        1
 62
     0
 92
       -2
340
0
 93
        0
 40
1.125
309
GRIDFORMAT_END
 95
       32
302
GRIDFORMAT
  1
GRIDFORMAT_BEGIN
 90
        0
 91
        1
 62
     0
 92
       -2
340
0
 93
        0
 40
1.125
309
GRIDFORMAT_END
309
TABLEFORMAT_END
  1
CELLSTYLE_BEGIN
 90
        2
 91
        1
300
_HEADER
309
CELLSTYLE_END
300
CELLSTYLE
  1
TABLEFORMAT_BEGIN
 90
        5
170
     1
 91
        0
 92
        0
 62
   257
 93
        1
300
CONTENTFORMAT
  1
CONTENTFORMAT_BEGIN
 90
        0
 91
        0
 92
      512
 93
        0
300

 40
0.0
140
1.0
 94
        2
 62
     0
340
11
144
4.5
309
CONTENTFORMAT_END
171
     1
301
MARGIN
  1
CELLMARGIN_BEGIN
 40
1.5
 40
1.5
 40
1.5
 40
1.5
 40
4.5
 40
4.5
309
CELLMARGIN_END
 94
        6
 95
        1
302
GRIDFORMAT
  1
GRIDFORMAT_BEGIN
 90
        0
 91
        1
 62
     0
 92
       -2
340
0
 93
        0
 40
1.125
309
GRIDFORMAT_END
 95
        2
302
GRIDFORMAT
  1
GRIDFORMAT_BEGIN
 90
        0
 91
        1
 62
     0
 92
       -2
340
0
 93
        0
 40
1.125
309
GRIDFORMAT_END
 95
        4
302
GRIDFORMAT
  1
GRIDFORMAT_BEGIN
 90
        0
 91
        1
 62
     0
 92
       -2
340
0
 93
        0
 40
1.125
309
GRIDFORMAT_END
 95
        8
302
GRIDFORMAT
  1
GRIDFORMAT_BEGIN
 90
        0
 91
        1
 62
     0
 92
       -2
340
0
 93
        0
 40
1.125
309
GRIDFORMAT_END
 95
       16
302
GRIDFORMAT
  1
GRIDFORMAT_BEGIN
 90
        0
 91
        1
 62
     0
 92
       -2
340
0
 93
        0
 40
1.125
309
GRIDFORMAT_END
 95
       32
302
GRIDFORMAT
  1
GRIDFORMAT_BEGIN
 90
        0
 91
        1
 62
     0
 92
       -2
340
0
 93
        0
 40
1.125
309
GRIDFORMAT_END
309
TABLEFORMAT_END
  1
CELLSTYLE_BEGIN
 90
        3
 91
        2
300
_DATA
309
CELLSTYLE_END
  0
XRECORD
  5
C51
102
{ACAD_REACTORS
330
C44
102
}
330
C44
100
AcDbXrecord
280
     1
102
ACAD_ROUNDTRIP_PRE2007_TABLESTYLE
 90
      512
 91
        0
  1

 92
      512
 93
        0
  2

 94
      512
 95
        0
  3

  0
ENDSEC
  0
EOF
